giovedì 25 aprile 2019

Lynyrd Skynyrd - 2011-11-13 - Sao Paulo, BR (DVDfull pro-shot)


(DVDfull pro-shot)

recorded from cable analogue TV Multishow ( I don´t know if the complete show was broadcasted in HD ) with a Panasonic Standalone DVD Recorder with Hard Disk

info
General
Complete name : C:\SWU Festival\VIDEO_TS\VTS_01_1.VOB
Format: MPEG-PS
File size : 1 024 MiB
Duration: 30mn 0s
Overall bit rate: 4 770 Kbps

Video
ID: 224 (0xE0)
Format: MPEG Video
Format version: Version 2
Format profile: Main@Main
Format settings, BVOP : Yes
Format settings, Matrix : Custom
Format settings, GOP: M=3, N=15
Duration: 30mn 0s
Bit rate: 4 380 Kbps
Width : 720 pixels
Height: 480 pixels
Display aspect ratio: 4:3
Frame rate: 29.970 fps
Standard: NTSC
Color space : YUV
Chroma subsampling: 4:2:0
Bit depth : 8 bits
Scan type : Interlaced
Scan order: Top Field First
Compression mode: Lossy
Bits/(Pixel*Frame): 0.423
Stream size : 949 MiB (93%)

Audio
ID: 189 (0xBD)-128 (0x80)
Format: AC-3
Format/Info : Audio Coding 3
Mode extension: CM (complete main)
Muxing mode : DVD-Video
Duration: 30mn 0s
Bit rate mode : Constant
Bit rate: 256 Kbps
Channel(s): 2 channels
Channel positions : Front: L R
Sampling rate : 48.0 KHz
Bit depth : 16 bits
Compression mode: Lossy
Delay relative to video : -450ms
Stream size : 55.0 MiB (5%)

01 - Mca
02 - I Ain´t The One
03 - Skynyrd Nation
04 - What´s Your Name
05 - Down South Jukin
06 - That Smell
07 - Same Old Blues
08 - I Know A Little
09 - Simple Man
10 - T For Texas
11 - Gimme 3 Steps
12 - Breeze
13 - Alabama
14 - Freebird





Nessun commento:

Posta un commento