mercoledì 30 dicembre 2015

New links on guitars101 on 30/12/2015


Paul Butterfield Blues Band - 1969-01-18 - Amsterdam, NL (FM/FLAC)
The Band - 1969-10-26 - Philadelphia, PA (AUD/FLAC)
The Band - 1971-12-xx - Hempstead, NY (STU/FLAC) Rehearsal
The Cure - 1986-06-21 - Pilton, UK (SBD/AUD/FLAC)
The Smiths - 1985-06-18 - New York City, NY (AUD/FLAC)
Tom Petty - 2015-12-19 - West Hollywood, CA (AUD/FLAC) with Jeff Lynne
Tom Waits - 1974-10-26 - Bryn Mawr, PA (AUD/FLAC)
Tom Waits - 1974-10-27 - Philadelphia, PA (FM/FLAC)
Yes - 2015-11-16 - Norwegian Pearl (AUD/FLAC)

New links on guitars101 on 29/12/2015


Albert King - 1989-07-04 - Milan, IT (AUD/FLAC)
Bhundu Boys - 1987-03-26 - Norwich, UK (AUD/FLAC)
Bonnie Raitt - 1985-09-14 - Watsonville, CA (SBD/FLAC)
Boomtown Rats - 1980-05-01 - Tokyo, JP (FM/FLAC)
Buddy Guy - 1982-01-31 - Stockholm, SWE (SBD/FLAC)
Buddy Guy and Junior Wells - 1985-04-07 - Kansas City, MO (SBD/FLAC)
Cheap Trick - 1978-06-10 - Boston, MA (FM/FLAC)
Depeche Mode - 1986-05-16 - Hamburg, DE (SBD/FLAC)
Frank Zappa - 1973-05-xx - Unknown Venue (SBD/FLAC)
Hall and Oates - 1995-12-04 - Tokyo, JP (SBD/FLAC)
Ian Gillan - 1980-10-06 - Sheffield, UK (FM/FLAC)
Ian Gillan - 1982-02-15 - Reggio Emilia, IT (AUD/FLAC)
Ian Hunter - 1980-04-18 - Essen, DE (SBD/FLAC)
Jaco Pastorius - 1985-01-30 - Toulouse, FR (FM/FLAC)
Level 42 - 1983-02-14 - Mainz, DE (FM/FLAC)
Martin Barre Band - 2015-12-15 - Rochester, NY (AUD/FLAC)
Meatloaf - 1978-06-06 - London, UK (FM/FLAC)

martedì 29 dicembre 2015

Sting - 2005-05-13 - Wantagh, NY (AUD/FLAC) by REQUEST



(Audience FLAC)

Jones Beach Theatre

Source: Core Sound Binurals>Sony PCM-M1 
Transfer: Fostex D5>Audiophile2496>SoundForge6.0>CDWave>FLAC 
Taped by: The Big Red Bag 
Location: Left of SBD 
Conversion by: Barbara Doughty (crypticalenvelop@hotmail.com) 

Sting - vocals, bass 
Dominic Miller - guitar, backing vocals 
Shane Fontayne - guitar, harmonica, backing vocals 
Josh Freese - drums 

Disc 1 
01. Message In A Bottle 
02. Demolition Man 
03. Spirits In The Material World 
04. Synchronicity II 
05. I Hung My Head 
06. If I Ever Lose My Faith In You 
07. The End Of The Game 
08. Driven To Tears 
09. Heavy Cloud No Rain 
10. Invisible Sun 
11. Why Should I Cry For You 
12. The Fields Of Gold 

Disc 2 
01. A Day In The Life 
02. King Of Pain 
03. Voices Inside My Head> When The World Is Running Down 
04. Roxanne 
05. So Lonely> 
06. Roxanne 
07. Next To You 
08. Every Breath You Take 
07. Lithium Sunset

Ghost - 2015-11-13 - Stockholm, SWE (Webcast/FLAC) by REQUEST

(Webcast FLAC)

Ghost (aka Ghost b.c.)
Annexet, Stockholm, Sweden
November 13, 2015

Complete show recorded by Swedish Radio P3. No DJs or edits.

Lineage: SRadio Webcast (192kbps AAC)>ffmpeg 2.7.2-1>wav>flac

01 Intro
02 Spirit
03 Pinnacle To The Pit
04 Ritual
05 Con Clavi Con Dio
06 Per Aspera Ad Inferi
07 Majesty
08 Body & Blood
09 Devil Church
10 Cirice
11 Year Zero
12 Spöksonat
13 He Is
14 Absolution
15 Mummy Dust
16 Jigolo Har Megiddo
17 Ghuleh/Zombie Queen
18 If You Have Ghosts
19 Monstrance Clock

Duration: 01:41:49.50, start: 0.000000, bitrate: 193 kb/s
Stream #0:0: Video: mjpeg, yuvj444p(pc, bt470bg/unknown/unknown), 256x256 [SAR 300:300 DAR 1:1], 90k tbr, 90k tbn, 90k tbc
Stream #0:1(und): Audio: aac (LC) (mp4a / 0x6134706D), 44100 Hz, stereo, fltp, 192 kb/s (default)

mercoledì 23 dicembre 2015

Sammy Hagar - 2015-08-14 - Springfield, IL (AUD/FLAC) by REQUEST

(Audience FLAC)

ILLINOIS STATE FAIRGROUNDS GRANDSTAND, SPRINGFIELD, IL

Taper: cptncrash76
Equipment: SP-CMC-26 > Tascam DR-05
Location: Track, leaning on rail for VIP near left speakers

01 - There's Only One Way To Rock
02 - Rock Candy
03 - Good Times Bad Times
04 - Poundcake
05 - I Can't Drive 55
06 - Right Now
07 - Whole Lotta Love
08 - Guitar Jam / Little White Lies
09 - When The Levee Breaks
10 - Why Can't This Be Love
11 - Heavy Metal
12 - Mas Tequila
13 - Dreams
14 - Rock And Roll
15 - Cabo Wabo

martedì 22 dicembre 2015

Sting - 2009-07-18 - Quebec City, QC (DVDfull pro-shot)

(DVDfull pro-shot)

Festival d'été de Québec, Plains of Abraham 

Lineage: 
Unknown pro-shot recording > unknown mode of recording > DVD 

Format : MPEG-PS 
File size : 3 60 GB 
Duration : 01:44:03 
Overall bit rate : 4 851 Kbps 

Video 
ID : 224 (0xE0) 
Format : MPEG Video 
Format version : Version 2 
Format profile : Main@Main 
Format settings, BVOP : Yes 
Format settings, Matrix : Custom 
Format settings, GOP : M=3, N=15 
Duration : 29mn 30s 
Bit rate mode : Variable 
Bit rate : 4 403 Kbps 
Maximum bit rate : 9 500 Kbps 
Width : 720 pixels 
Height : 480 pixels 
Display aspect ratio : 4:3 
Frame rate : 29.970 fps 
Standard : NTSC 
Color space : YUV 
Chroma subsampling : 4:2:0 
Bit depth : 8 bits 
Scan type : Interlaced 
Scan order : Top Field First 
Compression mode : Lossy 
Bits/(Pixel*Frame) : 0.434 

Audio 
ID : 189 (0xBD)-128 (0x80) 
Format : AC-3 
Format/Info : Audio Coding 3 
Mode extension : CM (complete main) 
Muxing mode : DVD-Video 
Bit rate mode : Constant 
Bit rate : 256 Kbps 
Channel(s) : 2 channels 
Channel positions : Front: L R 
Sampling rate : 48.0 KHz 
Bit depth : 16 bits 
Compression mode : Lossy 
Delay relative to video : -190ms

Bass and Vocals: Sting 
Guitar: Dominic Miller 
Keys: David Sancious 
Drums: Josh Freese 

01 - If I Ever Lose My Faith In You 
02 - Message In A Bottle 
03 - Englishman In New York 
04 - Synchronicity II 
05 - Every Little Thing She Does Is Magic 
06 - If You Love Somebody Set Them Free 
07 - Fields Of Gold 
08 - Driven To Tears 
09 - Walking On The Moon/Tea In The Sahara 
10 - Shape Of My Heart 
11 - Wrapped Around Your Finger 
12 - Bring On The Night/When The World Is Running Down... 
13 - Roxanne 
14 - Desert Rose 
15 - King Of Pain 
16 - Every Breath You Take 
17 - Fragile

Vieux Farka Toure - 2015-08-20 - Sacramento CA (AUD/FLAC) by REQUEST

(Audience FLAC)

Harlow's 

lineage
MK4 pair >> Nbob active cables >> Tinybox (w/OT) >> M-10 @ 24/48 

Reaper v5.01 >> Ozone 5 VST >> exciter, stereo image, compression >> dither to 16 bit (MBIT+ algorithm) >> WAV >> tracked in CD Wave >> FLAC conversion with TLH 

** 16 bit, 48 khz fileset ** 

domenica 20 dicembre 2015

The Cure - 1986-04-25 - London, UK (AUD/MKV/FLAC)

(Audience MKV + FLAC)

Source: audience
Quality: very good
Generation: AU 0
Lineage: Sony WM-d6 + Sony ECM-909
Recorded by: M.B.

Robert Smith
Simon Gallup
Porl Thompson
Boris Williams
Laurence Tolhurst

01 shake dog shake
02 play for today
03 kyoto song
04 other voices
05 primary
06 a strange day
07 inbetween days
08 the walk
09 a night like this
10 push
11 one hundred years
12 a forest
13 sinking

Encore 1:
14 let's go to bed
15 close to me

Encore 2:
16 charlotte sometimes
17 boys don't cry

Encore 3:
18 faith
19 pornography

Time: 95m (audio) / 76m (video)

Personal note:
A great show in near perfect quality (audio). This was at the benefit festival for Greenpeace: "Soundwaves for Greenpeace". Some of the best classic Cure songs are played and the show is very energetic. 'Pornography' sends shivers down your spine. Robert's hair was at its best these days ;)

Quality:
AUDIO: Near perfect. One of the better audience recordings I have. Full show (besides the 'Relax'- intro)
VIDEO: Definitely a VHS rip. Quality is pretty good for an old VHS tape.
The audio is a bit distorted on the low notes, but good to listen to.
The vocals are very clear.
Sadly the last 2 songs (the best of the show) are missing.
Also 'Shake Dog Shake/Play for Today/A Strange Day/A Forest' are cut.
The perfect audio-version makes up for that. According to cure-concerts.de this was shot with a 'Ferguson' camera. All songs are chaptered.


lunedì 14 dicembre 2015

David Gilmour - 2015-12-11 - São Paulo, SP, Brazil [96 kHz - 24 bit FLAC]



David Gilmour
2015-Dec-11
Allianz Parque
São Paulo, SP
Brazil

Lineage: CA11 > CA9200 > Zoom H4n > Audacity (tracking, split) > WAV 96 kHz, 24 bit > TLH > FLAC

Program:

1st Set:
01 - 5 A.M.
02 - Rattle That Lock
03 - Faces Of Stone
04 - Wish You Were Here
05 - A Boat Lies Waiting
06 - The Blue
07 - Money (false stars 1 & 2, including a really short but sweet Gilmour improv)
08 - Money
09 - Us And Them
10 - In Any Tongue
11 - High Hopes

2nd Set:
12 - Astronomy Domine
13 - Shine On You Crazy Diamond
14 - Fat Old Sun
15 - On An Island
16 - The Girl In The Yellow Dress
17 - Today
18 - Sorrow
19 - Run Like Hell

Encore:
20 - Time - Breathe (Reprise)
21 - Comfortably Numb

Approx.: 156 min.

Band :

David Gilmour - Guitars/Vocals
Phil Manzanera – Guitars/Vocals
Guy Pratt – Bass/Vocals
Jon Carin – Keyboards/Vocals
Steve Distanislao – Drums/Percussion/Vocals
Kevin McAlea – Keyboards
João Mello – Saxes/Clarinet/Ovation
Bryan Chambers - Vocals
Lucita Jules – Vocals


This recording registers David Gilmour's first ever presentation in Brazil.

Just to put this into context, one have to understand the idolatry level Pink Floyd achieved here in this country. Not necessarely true respectful and knowledgeable fans (they are aorund, en masse) but many for the more "fashionable" and cool aspects of "following" on something that is famous and popular. Also one should consider people's hunger and demand for a gig such as this. Bear in mind Brazilians are not particularly known for their quiet speech and introvert characters. I found out the crowd in São Paulo (which included people from all around the country) to be specially hostile and ungraceful. An average Paulista won't say "please, excuse me" he (sometimes she) will more likely say "get the f@#k out of the way".

This gig is an extra date they added to the South American tour schedule after the initial sales for the December 12 date sold out overnight. This date had chairs added to the front of the venue, at exorbitantly space high ticket prices. The crowd was very diverse, age wise, which was nice. As it is common in Brazilian culture, many people were drunk out of their minds, though... An estimated 40 thousand people attended this show, which pretty much stopped all the traffic in the vicinities of the Stadium, in the already complicated friday evening streets in this chaotic American megalopole. Many people entered late into the concert. Thus all the angry Paulistas shouting people to sit down...

Location: I was around 20 m way form the left stack in what I think was a favourable setting, although people transited in front of me during the whole concert.

It was indeed a lovingly (magic) evening and the sound in the stadium was pretty decent, even though it reverberated/echoed a bit and sometimes a bit boomy. During the intro for Sorrow, I could feel my body vibrating along the "stadium guitar sound". Money started with no bass and was aborted. While wating a bit too long, David offered a few improvised chords, before being interrupted by the bass. After a second try, it was still not ready to go. Only during take 3 the song launched.

There is an abrupt volume switch down during Fat old sun. In the middle of Run like hell all "hell" broke loose and the people started ignoring the rules (it was quiet ironic, since the staff were acting like worm soldiers yelling people to sit down) and the wealthy masses rushed to the front of the stage, prompting us all to stand up and "fighting" for individual space. About what I commented earlier on peolple being drunk out of their wits, this recording bears testimony to this, unfortunately, as you will notice during the encore, which was partially spoiled by a very inconvenient young individual.

I have to say this: If Waters is the master of ideas and concepts, Gilmour is the master of melody, mood and feeling. I have rarely been so moved by the music in a concert as that night. Pure magic.

For you, damned souls thinking of selling this over the internet or on local shops, here is what I say: DON'T!

Here is a list of potential boot titles, though:

What a lovely evening to be in São Paulo.

We were just trying to see if you were paying attention...

Where the f@#k is it?

Take 3, go!

Do whatever you like with it, as long as you don't sell it in any way. I won't be doing a CD-ready version of it, so feel free to dither, remaster or whatever you feel like doing. Use it exclusively for personal, archiving and educational purposes only.

domenica 13 dicembre 2015

Jimmy Page & Robert Plant - 1995-07-23 - Birmingham, UK (DVDfull aud-shot DL)

(DVDfull aud-shot DL) 

Jimmy Page & Robert Plant
Venue: The NEC, Birmingham, UK
Date: July 23, 1995
Label: SMAGIN
Length: 114 min
Media/Size: DL DVD - 7.37 GB

Video: Audience Shot (direct stage footage) - Patched missing pieces with video from previous night in Birmingham. The only video that need to be patched was the hurdy gurdy solo and two string ensemble preludes. Little jittery at times, but not too bad overall.

Source(s) courtesy of Martin Dumont and Paul Grouleau

Audio: PCM Stereo (AUD: Get Rid of the Smoke)

Source: VHS (1st gen) > ADS Pyro A/V link > Sony Video Vegas 6 > Sony DVD Architect

Video Attributes:
Video compression mode: MPEG-2
TV system: NTSC
Aspect Ratio: 4:3
Source picture resolution: 720x480 (525/60)
Bitrate: 7.50Mbps

Audio Attributes: 
Audio Coding mode: PCM
Sampling Rate: 48kHz
Number of Audio channels: 2
Bitrate: PCM

01. Egyptian Intro
02. Immigrant Song / Wanton song
03. Bring It On Home
04. Thank You
05. No Quarter
06. Battle Of Evermore
07. Hurdy Gurdy Solo
08. Gallows Pole
09. Since I've Been Loving You
10. The Song Remains The Same
11. Going To California
12. Friends
13. Four Sticks
14. Whole Lotta Love
15. Kashmir
16. Black Dog
17. In The Evening

Details: 
The alternate soundtrack (Get Rid of the Smoke) was used as the original was of lesser quality and contained several gaps. Converserly, the video had gaps that were exposed by using the new soundtrack. To fill these gaps (28min:04sec to 31min:06sec and 57min:16sec to 57min:37sec and 1hr:24min:22sec to 1hr:25min:37sec) pieces of the video from previous night in Birmingham were used. The only video that need to be patched was the hurdy gurdy solo and two string ensemble preludes.

sabato 12 dicembre 2015

New links on guitars101 on 12/12/2015


AC/DC - 2015-12-06 - Melbourne, AU (AUD/FLAC)
Buzzcocks - 1979-08-30 - Boston, MA (AUD/FLAC) by REQUEST
Dire Straits - 1978-01-29 - London, UK (AUD/FLAC) by REQUEST
Eric Burdon - Demos & Unreleased songs (STU/FLAC)
Etta James & the Roots Band 2005-05-14 San Jose, CA (AUD/FLAC)
Joe Jackson - 1979-04-26 - Washington, DC (FM/FLAC)
John Illsley of Dire Straits - 2015-03-30 - Bonn, DE (AUD/FLAC) by REQUEST
Neil Young - 1988-10-30 - Fresno, CA (AUD/FLAC) by REQUEST
Noel Gallagher - 2015-12-07 - London, UK (FM/FLAC)
Queensryche - 1991-06-07 - Rochester, NY (AUD/FLAC) by REQUEST
Richard Thompson - 1994-03-30 - St. Louis, MO (SBD/FLAC)
Slash - 2015-09-26 - Northfield, OH (AUD/FLAC)

Tri Yann - 2012-08-11 - Pleudihen-Sur-Rance, FR (AUD/FLAC) by REQUEST

(Audience FLAC)

Tri Yann
Pleudihen-Sur-Rance
France
Fête du blé
August 11, 2012

Audience - Open air

Taping location :
Soundcheck : Close to main soundboard room
Concert : Close to stage, center right

Lineage :
Yamaha Pocketrak W24 -> WAV -> WaveLab (EQ & processing) -> Foobar2000 -> Flac

Soundcheck
1. Marie-Jeanne Gabrielle (laughing version...)
2. Naïk ar Bihan, fille follette
3. Chalémie solo from Kan ar kann
4. Na I ri o

Concert
1. Na I ri o
2. Chanson du baleinier François Le Billant
3. J'ai croisé les Néréides
4. Chanson de Pelot d'Hennebont
5. Naïk ar Bihan, fille follette
6. Fransozig
7. Marie-Jeanne Gabrielle
8. Le retour de la croisade
9. Gavotten ar seizh
10. La légende de Marion du Faouët
11. Complainte de Marion du Faouët
12. Le chasseur de temps
13. Si mort a mors
14. Lamentations sur Saint-Aubin-du-Cormier
15. Kan ar kann
16. Divent an dour
17. La jument de Michao
18. Les prisons de Nantes
19. Pour faire de bonnes crespes
20. Itsi bitsi petit bikini
21. Je m'en vas

It's been now 41 years the three John (Tri Yann in Breton) are singing Brittany in their very own special way and with talent. Jean, Jean-Louis and Jean-Paul we love your songs.

Talking Heads - 1978-01-13 - Hamburg, DE (AUD/FLAC) by REQUEST



(Audience FLAC)

Talking Heads 1978-01-13 Hamburg, Onkel Poe (FLAC)

not CD or Vinyl sourced

CDr>CDwave>WAVE>FlacFrontend Level 8>FLAC

Quality : 6 - 7

01.Love Goes To Buildings On Fire ( quality : 4 - 5 )
02.Uh Oh Love Comes To Town
03.Don´t Worry About The Government / Take Me To The River
04.The Book I Read
05.New Feeling
06.The Big Country
07.Tentative Decisions
08.Stay Hungry
09.Thank You For Sending Me An Angel
10.Who Is It ? / Psycho Killer ( incompl. )

David Sylvian and Robert Fripp - 1992-06-24 - Genoa, IT (AUD/FLAC)



(Audience FLAC)

Teatro Margherita, Genoa, Italy 
June 24, 1992 

AUD > ?? > CDR > WAV > FLAC > WAV > CDR > EAC > FLAC (L8) 
Taped by: ?? 
Transfered by: Michael Whincup 

Bootleg Title: The First Day Italy 1992 
Playing Time: 1:11:26 
Edited with Adobe Audition 1.0 


David Sylvian (vocals, guitar, keyboard) 
Robert Fripp (guitar, Frippertronics) 
Trey Gunn (stick) 

Tracks 11 + 12: 
Sylvian, Gunn + The California Guitar Trio: 
Hideyo Moriya (guitar) 
Paul Richards (guitar) 
Bert Lamas (guitar) 

01. Bringing Down The Light (Soundscape) [7:45] 
02. Firepower [2:14] 
03. Ascension / Under Ingrid's Wheels / Subterranean Burn [10:16] 
04. The First Day [7:53] 
05. Jean The Birdman [3:58] 
06. 20th Century Dreaming [2:26] 
07. The House In Which We Live [8:08] 
08. Chromatic Fantasy [2:34] 
09. Blinding Light Of Heaven [4:27] 
10. Urban Landscape [10:45] 
11. Blockhead [3:46] 
12. Asturias [3:11] 
13. Ghosts [4:05] 

Notes: 
Occasional artifacts (tracks 10, 13) most probably due to extracting from an older CDR. Tracks 7, 9, 10, and 13 were edited due to noise level dropouts. No editing has taken place besides a few slight cuts and amplification changes. 

Although circulating as a soundboard I believe this is in fact a great audience recording! 

Full setlist according to davidsylvian.net: 

9 songs by California Guitar Trio (opening act) 
Soundscape 
Firepower 
Ascension 
Under Ingrid's Wheels 
Subterranean Burn 
The First Day 
Jean the Birdman 
20th Century Dreaming 
The House in Which We Live 
Chromatic Fantasy 
Blinding Light of Heaven 
Urban Landscape 
Blockhead (CGT) 
Asturias (CGT) 
Ghosts (encore) 
Blinding Light Of Heaven (encore) 
Jean the Birdman (encore) 

Credits: 
Provider: Michael Whincup 
Distributor: Carl (erutan) 

giovedì 10 dicembre 2015

U2 - 2015-12-06 - Paris, FR (AUD/FLAC)

(Audience FLAC)

U2
Sunday December 6th 2015
Palais Ominisport de Paris-Bercy
Paris, France

Neumann KM140 > TinyBox > Sony PCM M10
EQ with HarBal 2.3 (slight Bass Boost)

01 Intro: People Have the Power
02 The Miracle (Of Joey Ramone)
03 Out Of Control
04 Vertigo
05 I Will Follow
06 Iris (Hold Me Close)
07 Cedarwood Road
08 Song For Someone
09 Sunday Bloody Sunday
10 Raised By Wolves
11 Until The End Of The World
12 Intermission - The Fly
13 Invisible
14 Even Better Than The Real Thing
15 Mysterious Ways
16 Elevation
17 Ordinary Love
18 Every Breaking Wave
19 October
20 Bullet The Blue Sky
21 Zooropa
22 Where The Streets Have No Name
23 Pride (In The Name Of Love)
24 With Or Without You
25 Encore Break
26 City Of Blinding Lights
27 Beautiful Day
28 Mother And Child Reunion
29 One
30 Bad
31 People Have The Power

lunedì 7 dicembre 2015

Your latest REQUESTS


Anathema - 2015-11-17 - Norwegian Pearl (AUD/FLAC)

New links on guitars101 on 6/12/2015


Bob Dylan - 1990-02-06 - London, UK (AUD/FLAC) Holy Grail Series
Bob Dylan - 1994-10-23 - Syracuse, NY (AUD/FLAC) Holy Grail Series
Cheap Trick - 1977-11-01 - Toronto, Ontario, Canada (FM/FLAC)
Dead Kennedys - 1980-10-08 - London, UK (SBD/FLAC)
Jeff Lynne's ELO - 2015-11-24 - Hollywood, CA (AUD/FLAC)
Leo Kottke - 1999-05-05 - Rochester, NY (SBD/FLAC)
Mick Taylor - 2001-11-24 - Hilversum, NL (FM/FLAC)
Mick Taylor - 2006-12-09 - Karlstad, SWE (AUD/FLAC)
Paul Butterfield's Blues Band - 1969-08-xx - San Francisco, CA (AUD/FLAC)
Grand Funk Railroad - 1974-06-01 - Los Angeles, CA (SBD/FLAC)
GTR - 1986-09-14 - London, UK (FM/FLAC)
Paul Simon & Art Garfunkel- 1968-08-23 - Hollywood, CA (SBD/FLAC)
Steve Earle - 1974-1979 - The Mexico Demos (STU/FLAC)
The Cure - 2004-10-15 - Paris, FR (FM/FLAC)

Van Morrison - 1975-06-07 - Riverside, CA (AUD/FLAC) Uncirculated and Undocumented Show



(Audience FLAC)

Van Morrison 
Webber Hall 
University of California, Riverside 
Riverside, CA 
June 7, 1975, 11:00 PM Show 
Lost California Performances 
JF Archive Series No. 7 via JEMS 

Taper: JF 

Source: unknown recorder > unknown microphone (mono) 

JEMS 2015 Transfer: JF master TDK cassette > Nakamichi CR-7A (azimuth adjustment) > Sound Devices USBPre 2 > Audacity 2.0 (24/96) capture > iZotope RX4 > iZotope Ozone 5 > iZotope RX MBIT+ resample 16/44.1 > Peak Pro XT (edit / index) > xACT 2.21 > FLAC 

01 Alright, Okay, You Win (Count Basie/Joe Williams) 
02 One Of These Days (Mose Allison) 
03 Blue Money 
04 Wild Night 
05 I Have Finally Come To Realize
06 Brown Eyed Girl 
07 I’ve Been Working 
08 St Dominic’s Preview > Walk On The Wild Side (Lou Reed) > You Can’t Always Get What You Want (Rolling Stones) 
09 Gloria 

RIVERSIDE, LATE SET 
The 11 pm setlist at Webber Hall brings some welcome changes from the early set. The wonderful “St Dominic’s Preview” mixed with “Walk on the Wild Side” and “You Can’t Always Get What You Want” returns, and we also get the first ‘75 tour recording of “Blue Money.” Released on His Band And The Street Choir, “Blue Money,” is a relative rarity, with only 18 known performances prior to this one according to the authoritative set-list histories found at vanomatic.de. 

But even more exciting is the first known live version of “I Have Finally Come To Realize,” a song recorded at the Record Plant in Sausalito within days or weeks of this show, but not released officially until 1998’s The Philosopher’s Stone. Van introduces it by saying he’d “like to do a recent song” and delivers a wonderful reading. There are only ten known performance of the track, all from 1998 and 2002, so JF’s recording is indeed a major find. 

Happily, the high quality of the early Riverside recording carries over to the late show which sounds every bit as good. Samples provided. 

Once again the band is: John Blakely on guitar; Mark T. Jordan on keyboards; David Hayes on Bass; and Tony Dey on drums. 

Here’s what JF recalls about the Riverside shows: 

“This was the fourth show in a mini-Van marathon – two shows the previous night in Irvine, the second of two this night in Riverside and one more on the afternoon of the following day in Santa Barbara. There were no seats here – people just gathered around the stage on the floor of the college basketball stadium and danced or just hung out and listened. I stood back by the sound booth in the center of the hall, warily eyeing Van’s sound people so they wouldn’t catch me recording and secretly wishing I could tap into their line feed from the stage.” 

Thanks to JF, who reached out on DIME (you could be next!) and offered us his archive, which had been sitting in boxes, 6000 miles away from where he lives today, for 20+ years. Like so many early tapers, he had great stories to tell and the memories flooded back as we sorted through tapes. We are pleased to be able to bring his work to all of you. Please let him know through your comments that you are, too. 

We also appreciate the unnamed Van collectors for helping to get JF’s masters back in his control. And finally, special thanks mjk5510, who continues serve as JEMS’ post-production and quality-control supervisor. He is essential to our process and we couldn’t do it without him. 

BK for JEMS

giovedì 3 dicembre 2015

Bruce Springsteen - 1981-04-07 - Hamburg, DE (AUD/FLAC)



(Audience FLAC)

We're Living Through Tonight in Hamburg
April 7th, 1981
Hamburg, GER
Congress Centre

CASSETTE TAPE CONVERSION-
TDK SA-X90 Cassette Tape(Normal Bias)--Teac W-860R Double Cassette deck--Xitel USB INPort-->.wav files--CD Wave Editor(track splits)--Flac FrontEnd 1.1.2(level 8, align on sector boundaries, verify)-->.flac files

Upload will include .md5 verification file, flac fingerprint, spectral/frequebncy analysis, artwork, and PAR2 recovery files.

DISC ONE
01-Prove It All Night(start cut)
02-Out in the Street
03-10th Avenue Freezeout
04-Who'll Stop the Rain
05-Two Hearts
06-The Promised Land
07-Badlands
08-Sherry Darling(volume fluctuation in middle)
09-Hungry Heart
10-Fire

DISC TWO
01-You Can Look
02-Backstreets
03-Ramrod
04-Rosalita(start very slight cut)
05-Born to Run
06-Detroit Medley
07-Rockin' All Over the World

Missing (according to the Killing Floor & Brucebase): Darkness on the Edge of Town, Independence Day, The River, Thunder Road, Cadillac Ranch, Wreck on the Highway, and Racing in the Street.

From Brucebase: Audience tape - but only about 90 minutes - First appearence of the band in Europe since 1975. Debut of Rockin' All Over The World. Released on CDR "We're Living Through Tonight In Hamburg".

The first show of the EU leg of the River Tour. This is another of those shows that has been hard to find in lossless form. As far as we know there is no recording of the complete show. Thanks to Glenn Jackson for the cassette. A few seconds of silence between tracks where songs are missing. Volume fluctuations on a few songs, I tried to minimize them. You may have to turn the volume up a nudge, I was going to raise it but decided against it.

martedì 1 dicembre 2015

U2 - 1997-09-20 - Reggio Emilia, IT (DVDfull aud-shot)

(DVDfull aud-shot)

Tour : Popmart Tour
Leg : Leg 2 - Europe
Date : 09.20.1997
Country : Italie
Town : Reggio Emilia
Place : Festival Site
Type : Video
Support : DVD+/-R
Taper : ilcontethefly & ?
Material : Hi8mm > VHS > VHS > DVD (audio & video mix by Rambis Production)
Performance : Live
Source : VHS
Generation : 2nd Generation
Integral : Selected Songs
Camera : Amateur
Nb Cam. : 3 and more
Format : PAL
Résolution : 720x576
Sound : MPEG2
Ratio : 4/3
Authoring : Yes (By Titles)
Menu : Yes

(2:12:20)  

01. Pop Muzik
02. Mofo
03. I Will Follow
04. Gone
05. Even Better Than The Real Thing
06. Last Night On Earth
07. Until The End Of The World
08. New Year's Day
09. Pride (in The Name Of Love)
10. I Still Haven't Found What I'm Looking For
11. All I Want Is You
12. Staring At The Sun
13. Volare
14. Miami
15. Bullet The Blue Sky
16. Please
17. Where The Streets Have No Name
18. Lemon (perfecto Mix)
19. Discothèque
20. If You Were That Velvet Dress
21. With Or Without You
22. Hold Me, Thrill Me, Kiss Me, Kill Me
23. Mysterious Ways
24. One
25. M L K 

martedì 24 novembre 2015

Dio - 1984-1997 - TV Compilation (DVDfull pro-shot)

FOUND IT!!!!!! VERY SOON ON BLOG


Artist:
Dio

Show or Bootleg Title:
TV Compilation 84-97

Show Venue:
Various

Source:
Video - Pro Shot DVD

Video Quality/Production Info:
Various - Over all good quality

Audio/Video Specs:
Video attributes:
Video compression mode: MPEG-2
TV system: 52⅚0 (NTSC)
Aspect ratio: 4:3
Display mode: Both Pan&scan and Letterbox
Source picture resolution: 720x480 (52⅚0)
Frame rate: 30.00
Source picture letterboxed: Not letterboxed
Bitrate: 6.87Mbps

Audio attributes:
Audio coding mode: MPEG-1 or MPEG-2 without extension bitstream
Sampling rate: 48kHz
Audio application mode: Not Specified
Number of audio channels: 2.0
Bitrate: 224 Kbps
Number of audio streams: 1

Format:
NTSC

Set List/Chapters:
Green Pinkpop Fest
Holland Gellen
1984-06-11
1. One Night in the City
2. We Rock

Rock Palace (Fan Club Gig)
Hollywood, CA
01.14 .84
TV broadcast (bit of sound distortion at the beginning)
1. Stand Up and Shout
2. Straight Through the Heart
3. Rainbow in the Dark
4. The Man on the Silver Mountain

The Tube
London, UK
04.04.86
TV broadcast
1. Hungry for Heaven
2. Rock'n Roll Children

MTV Headbanger's Ball
San Antonio, TX
02.05.88
Interview mixed intro:
1. Stand Up and Shout
2. Dream Evil
3. Naked in the Rain
4. Craig Goldy solo (shoots robot spider with his guitar laser!)
5. Naked in the Rain (reprise)

SKOL Rock Festival
Estadio do Caninde
Sao Paulo, Brazil
11.15.97
1. Heaven and Hell
2. Rainbow in the Dark
3. Stand Up and Shout
4. The Last in Line
5. The Man on the Silver Mountain
6. Long Live Rock'n Roll

venerdì 20 novembre 2015

Bob Dylan - 2013-10-22 - Duesseldorf, DE (AUD/FLAC) by REQUEST

(Audience FLAC)

Mitsubishi Electric Halle

Taper: 3dogs
AUD-Core Sound Binaural Mics>Sony PCM-M10>USB>HD>WAV 44/16>
Audacity (increased levels, fade in/out)>CD Wave (tracking)>FLAC Frontend>FLAC (6)

Band Members:
Bob Dylan (vocals, piano, harp)
Tony Garnier (bass)
George Recile (drums)
Stu Kimball (rhythm guitar)
Charlie Sexton (lead guitar)
Donnie Herron (banjo, violin, electric mandolin, pedal steel, lap steel)

Set 1
01. Things Have Changed
02. She Belongs To Me
03. Beyond Here Lies Nothin'
04. What Good Am I?
05. Pay In Blood
06. Waiting For You
07. Duquesne Whistle
08. Tangled Up In Blue
09. Love Sick

(Intermission)

Set 2
10. High Water (For Charley Patton)
11. Simple Twist Of Fate
12. Early Roman Kings
13. Forgetful Heart
14. Spirit On The Water
15. Scarlet Town
16. Soon After Midnight
17. Long And Wasted Years

-encore-
18. All Along The Watchtower
19. Blowin' In The Wind

giovedì 19 novembre 2015

Iggy and The Stooges - 1974-01-19 - Toledo, OH (AUD/ FLAC) by REQUEST

(Audience FLAC)

The Toledo Sports Arena


This was recorded on a General Electric cassette recorder on an RCA CV 60 cassette. This torrent was made from that master cassette... or what remains of it. Sometime in the late 1970s, I dubbed the cassette onto a reel to reel and reused the cassette around that time. After a few years of not listening to the reel tape (probably around 1980), due to its poor quality, I cut The Stooges portion from the reel and (probably) used it for other things. The only thing from this recording that survives is most of "Search and Destroy" from the end of the master cassette. Thankfully, this was never recorded over.


For years, I've scoured over all my old reels in search of the rest of the concert. I've even tried misaligning the tape across the head to see if any remnant remains off track (I've discovered this can happen). Sadly, nothing seems to remain. I am positive I still have the cut out tape but it is likely recorded over. If I EVER discover any more of it, I'll certainly get it out there.


This one song recording has circulated since the 1980s from a single trade I made with a friend back then and most copies out there are multi-generation from his source. A few years ago, probably 2008, I made a fresh digital dub from the master cassette. I did post it on The Stooges Forum so, it's already out there. I figured I would propagate it a bit more with a torrent. If you've seen this date on Stooges lists, this is the tape referred to.


DIGITAL TRANSFER:

Probably 2008
Playback machine: Nakamichi CR-7A
Straight to computer with Sound Blaster card
Software: Steinberg Wavelab 4.0

I don't remember exactly but, considering the sound of the source tape, I surely did some volume and transient peak adjustments and surely applied some EQ. I don't recall using any noise reduction but it's a good possibility. Likewise, I might have applied some other minimal processing.


Note too, memory has served me that a complaint we had about this show was that Iggy's voice was difficult to hear which is evident in this recording. Even though the quality is so poor, I've so grown to regret not saving the complete recording.


ARTWORK (see further details below):

- contemporary shots inside (showing where I was seated) and outside of the arena (now demolished)
- the master cassette sides A & B
- show poster
- show ad from the Toledo Blade newspapaer
- the reel tape with enhancement to illustrate original setlist from the show 

 
01 - Search and Destroy (incomplete)

TIME: 4:05

Artwork details about the tape and box:

The cassette condition is as it was since the early 1980s. And, to further details about this concert, I've illustrated the reel to reel box which features a setlist of sorts. Part of the list was written when I dubbed the cassette onto the reel. Because "Rich Bitch" is listed, it was obviously after "Metallic KO" was released. I also recall "Head On" being one of the unknown tracks 5-7.

As listed on the reel box:

1. Raw Power
2. Rich Bitch
3. Heavy Liquid
4. Gimme Danger
5. unknown
6. unknown
7. unknown
8. Search and Destroy (listed at the top right of the box)

Eric Clapton - 1975-06-24 - Springfield, MA (AUD/FLAC)



(Audience FLAC)

Civic Center 

Source: Jesus Coming [Slunky 19 A/B] 

Eric Clapton - guitar, vocals 
George Terry - guitar 
Carl Radle - bass 
Dick Sims - keyboards 
Jamie Oldaker - drums 
Yvonne Elliman - backing vocals 
Marcy Levy - backing vocals 

*with Carlos Santana 

CD 1: 
01. (intro) 
02. Layla 
03. Bell Bottom Blues 
04. Key To The Highway 
05. Massachusetts Jam 
06. Can't Find My Way Home 
07. Better Make It Through Today 
08. Keep On Growing 
09. Teach Me To Be Your Woman 
10. Mainline Florida 

CD 2 
01. Knockin' On Heaven's Door 
02. Tell The Truth 
03. Crossroads 
04. Why Does Love Got To Be So Sad* 

Filler: Civic Center, Providence, RI, 1975-06-25 
05. Sunshine Of Your Love 
06. Motherless Children
07. Mean Old World 

Total time = 138:08 

notes
Santana opened for Clapton and plays on the last track of the Springfield date. Some Providence tracks - Layla, Further On Up The Road, Driftin' Blues, Eyesight To The Blind, and Why Does Love Got To Be So Sad? - were released on the Crossroads 2 (Live In The Seventies) commercial release. However, none of those tracks are included here as filler. 

mercoledì 18 novembre 2015

Robert Plant - 2014-11-26 - Blackpool, UK (AUD/FLAC)

(Audience FLAC)

Robert Plant and the Sensational Space Shifters: 2014 November 26th. 

Tower Ballroom Blackpool

Mics: SP-CMC-4U mounted on glasses > Church Audio Preamp CA 9200 > Sony PCM M10 

Lineage: Wave 24bit sample rate 48khz> > Stereo Expander (20%) > Multiband Compression (Effect Preset; FM Radio)> Fade ins and fade outs. (All processing done in Wave Lab 6.0) > tested and copied via Traders Little Helper >Flac (level 6)>checksum file (traders little helper)

Justin Adams
John Baggott
Juldeh Camara
Billy Fuller
Liam “Skin” Tyson
Dave Smith

Disc 1 
01 - PA Intro 
02 - Friends 
03 - Spoonful 
04 - Turn It Up 
05 - Nobody's Fault but Mine 
06 - Going to California 
07 - Embrace Another Fall 
08 - Rainbow 
09 - What Is and What Should Never Be 
10 - Little Maggie 
11 - Fixin' to Die 

Disc 2 
01 - Crawling King Snake / Whole Lotta Love / Mona 
02 - Babe, I'm Gonna Leave You 
03 - Rock n Roll 

martedì 17 novembre 2015

U2 - 2015-11-11 - Paris - Proshot - FullHD 1080p (ts pro-shot) mirrors completed.

(ts pro-shot)

General
ID: 112 (0x70)
Complete name: U2.Innocence.Experience.Tour.2015.11.11.Paris.1080p.HDTV.h264-DRACULA.ts
Format: MPEG-TS
File size: 24.7 GiB
Duration: 2h 6mn
Overall bit rate mode: Variable
Overall bit rate: 27.9 Mbps

Video
ID: 512 (0x200)
Menu ID: 1 (0x1)
Format: AVC
Format/Info: Advanced Video Codec
Format profile: Main@L4.1
Format settings, CABAC: Yes
Format settings, ReFrames: 3 frames
Codec ID: 27
Duration: 2h 6mn
Bit rate mode: Constant
Bit rate: 24.5 Mbps
Width: 1 920 pixels
Height: 1 080 pixels
Display aspect ratio: 16:9
Frame rate: 29.970 fps
Color space: YUV
Chroma subsampling: 4:2:0
Bit depth: 8 bits
Scan type: MBAFF
Scan order: Top Field First
Bits/(Pixel*Frame): 0.394
Stream size: 21.1 GiB (85%)
Color range: Limited
Color primaries: BT.709
Transfer characteristics: BT.709
Matrix coefficients: BT.709

Audio #1
ID: 4108 (0x100C)
Menu ID: 1 (0x1)
Format: MPEG Audio
Format version: Version 1
Format profile: Layer 2
Codec ID: 4
Duration: 2h 6mn
Bit rate mode: Constant
Bit rate: 384 Kbps
Channel(s): 2 channels
Sampling rate: 48.0 KHz
Compression mode: Lossy
Delay relative to video: -438ms
Stream size: 349 MiB (1%)
Language: French

Audio #2
ID: 4124 (0x101C)-1
Menu ID: 1 (0x1)
Format: Dolby E
Mode: 20
Format settings, Endianness: Little
Muxing mode: SMPTE ST 302 / SMPTE ST 337
Codec ID: 6
Duration: 2h 6mn
Bit rate mode: Constant
Encoded bit rate: 2 304 Kbps
Channel(s): 6 channels
Channel positions: Front: L C R, Side: L R, LFE
Sampling rate: 48.0 KHz
Bit depth: 20 bits
Delay relative to video: -433ms
Language: English

Audio #3
ID: 4124 (0x101C)-2
Menu ID: 1 (0x1)
Format: Dolby E
Mode: 20
Format settings, Endianness: Little
Muxing mode: SMPTE ST 302 / SMPTE ST 337
Duration: 2h 6mn
Bit rate mode: Constant
Encoded bit rate: 0 bps
Channel(s): 2 channels
Channel positions: Front: L R
Sampling rate: 48.0 KHz
Bit depth: 20 bits
Delay relative to video: -433ms

New links on guitars101 on 17/11/2015


Bob Dylan - 2015-11-07 - Amsterdam, NL (AUD/FLAC)
Don Henley - 2015-11-12 - Philadelphia, PA (AUD/FLAC) by REQUEST
Donovan - 2015-11-09 - Tunbridge Wells, UK (AUD/FLAC)
Heart - 2015-11-14 - Sahuarita, AZ (AUD/FLAC)
Iron Maiden - 1983-12-18 - Dortmund, DE (FM/FLAC)
Led Zeppelin - 1980-06-18 - Cologne, DE (SBD/FLAC)
Megadeth - 2015-11-15 - Birmingham, UK (AUD/FLAC)
Rainbow - 1981-08-28 - Tokyo, JP (SBD/FLAC)
The Waterboys - 2015-11-14 - Portsmouth, UK (AUD/FLAC)
Van Halen - 1976-05-29 - Pasadena, CA (AUD/FLAC)

domenica 15 novembre 2015

Billy Joel - 2015-08-13 - Philadelphia, PA (AUD/FLAC)

(Audience FLAC)

Citizens Bank Park 

Source: Schoeps MK4 > actives > tinybox > Sony M-10 
Transfer: wav file > Sound Studio > xACT > FLAC (level 8) 
Recording location: Field section BB, row 11 

Recorded by: Tapehead2 

01 intro music 
02 Big Shot 
03 My Life 
04 This Is the Time 
05 The Entertainer 
06 No Man’s Land 
07 The Downeaster Alexa 
08 An Innocent Man 
09 Allentown 
10 Goodnight Saigon 
11 The Ballad of Billy the Kid 
12 New York State of Mind
13 Movin’ Out (Anthony’s Song) 
14 Keeping the Faith 
15 Say Goodbye to Hollywood 
16 Don’t Ask Me Why 
17 She’s Always A Woman 
18 Captain Jack 
19 The River of Dreams / Summer in the City 
20 Scenes From an Italian Restaurant 
21 Piano Man

Encore: 
22 We Didn’t Start the Fire 
23 Uptown Girl 
24 It’s Still Rock and Roll To Me 
25 You May Be Right / Rock and Roll (with Gavin Degraw) 
26 Only The Good Die Young 

Length: 2:36:04

Bob Dylan - 2015-10-17 - Saarbrucken, DE (AUD/FLAC) Taped by hhtfp

(Audience FLAC)

Saarlandhalle 

Lineage: Schoeps CCM 4(smp) > Tascam DR-100MKII @ 24-48 > PC (Sound Forge; TLH (sbeok; flac(8))) 
taped, edited & transferred by hhtfp 
seeded by helm 

Bob Dylan - voc, piano, harp 
Tony Garnier - bass 
George Recile - drums 
Stu Kimball - rhythm guitar 
Charlie Sexton - lead guitar 
Donnie Herron - violin, banjo, electric mandolin, pedal steel, lap steel 

Set 1 (CD 1) [43:15] 
01. intro (Stu Kimball) [0:58] 
02. Things Have Changed [5:15] 
03. She Belongs To Me [4:39] 
04. Beyond Here Lies Nothin' [4:26] 
05. What'll I Do [3:01] 
06. Duquesne Whistle [6:38] 
07. Melancholy Mood [2:49] 
08. Pay In Blood [4:30] 
09. I'm A Fool To Want You [4:39] 
10. Tangled Up In Blue [6:21] 

(intermission) 

Set 2 (CD 2) [59:23] 
11. intro (Stu Kimball) [1:06] 
12. High Water (For Charley Patton) [4:52] 
13. The Night We Called It A Day [3:53] 
14. Early Roman Kings [6:17] 
15. Why Try To Change Me Now [3:49] 
16. Spirit On The Water [6:37] 
17. Scarlet Town [5:52] 
18. All Or Nothing At All [3:11] 
19. Long And Wasted Years [4:08] 
20. Autum Leaves [6:06] 

encore: 
21. Blowin' In The Wind [6:28] 
22. Love Sick [7:03]

tt: 1:42:38 h

sabato 7 novembre 2015

AC/DC - 2015-11-04 - Sydney, AU (AUD/FLAC)

(Audience FLAC)

ANZ Stadium Sydney, Australia
Recorded and mastered by Navigator

lineage
SP-CMC-8 (AT 943) > SP-SPSB-11 > Edirol R-09 (16/44.1) > Adobe Audition 3 (with iZotope Ozone 4 mastering plug-in) > CD Wave Editor (track splitting) > HAT (align sector boundaries, FLAC)

CD1
01. Intro
02. Rock or Bust
03. Shoot to Thrill
04. Hell Ain't a Bad Place to Be
05. Back in Black
06. Play Ball
07. Dirty Deeds Done Dirt Cheap
08. Thunderstruck
09. High Voltage
10. Rock 'n' Roll Train
11. Hells Bells
12. Baptism by Fire
13. You Shook Me All Night Long

CD2
14. Sin City
15. Shot Down in Flames
16. Have a Drink on Me
17. T.N.T.
18. Whole Lotta Rosie
19. Let There Be Rock/Guitar Solo
20. Highway to Hell
21. For Those About to Rock (We Salute You)

Notes:
Taped from the floor Arena A section, collar mounted mics (under the hooded raincoat!) pointed towards the stage. Rainy and windy night in Sydney, difficult one to tape. Check the sample for quality before download.

venerdì 6 novembre 2015

Neil Young - 2014-07-10 - Cork, IE 4 seed (DVDfull aud-shot DL)

(DVDfull aud-shot DL)

NEIL YOUNG With CRAZY HORSE
Live at the Marquee, The Docklands,
CORK, IRELAND
(July 10, 2014)

Multicam

Format: NTSC
Resolution: 16/9
Sound: LPCM
Size: 4,79 Gb

Lineage:
Video: YouTube>ClipConverter up to 1080p
Audio: Dime Member tbugsett
Synch, Editing, Rendering: Vegas Pro + DVD Architect
Authoring: TMPGEnc Authoring Works

Neil Young - vocals, electric guitar, acoustic guitar, harmonica
Frank Sampedro - electric guitar, keyboards, vocals
Ralph Molina - drums, vocals
Rick Rosas - bass
Dorene Carter - vocals
YaDonna West - vocals

MISSING: Love and Only Love
01 - Goin' Home (Cuts in)
02 - Days That Used to Be
03 - After the Goldrush
04 - Love to Burn
05 - Separate Ways
06 - Only Love Can Break Your Heart
07 - Don't Cry No Tears.
08 - Blowin' in the Wind
09 - Red Sun
10 - Heart of Gold
11 - Powderfinger
12 - Psychedelic Pill
13 - Rockin' in the Free World
14 - Who's Gonna Stand Up?
15 - Roll Another Number (For the Road)

giovedì 5 novembre 2015

Iron Maiden - 2012-06-26 - Mansfield, MA (AUD/FLAC)

(Audience FLAC)

Comcast Center

Master Recording

Lineage
SP-BMC-3 (mics)- SP Battery Box - Sony PCM-10 (recorder)-PC-Audacity for Splitting to Flac-You

01. Moonchild
02. Can I Play With Madness
03. The Prisoner
04. Two Minutes To Midnight
05. Afraid To Shoot Strangers
06. The Trooper
07. The Number Of The Beast
08. The Phantom Of The Opera
09. Run To The Hills
10. Wasted Years
11. Seventh Son Of A Seventh Son
12. The Clairyovant
13. Fear Of The Dark
14. Iron Maiden
15. Encore Break
16. Aces High
17. The Evil That Men Do
18. Running Free

Notes:
Recorded from section 7. Some crowd noise. Seems the sound guy had an off night. Amplifed the sound a bit in Audcity.

mercoledì 4 novembre 2015

REQUEST: your help needed please!!!!


Hi there TUBERS your help needed: one of our friends are searching for this DVD: Ozzy live in Montreal 1984. If there is anyone who have it, please share it. Thanks in advance.

lunedì 2 novembre 2015

Metallica - 2015-09-19 - Rio De Janeiro, BR (MKV pro-shot)

(MKV pro-shot)

City: Rio de Janeiro
Country: Brazil
Venue: Cidade do Rock
Line-Up: James Hetfield, Lars Ulrich, Kirk Hammett, Robert Trujillo

Lineage:
Cable TV (Multishow HD Broadcast) > HDD > mkvmerge > You

Quality: HD 720p
Format: MKV
Video: x264, 1280x720, 16:9, 5000 kbps, 29.970 Fps
Audio: AC3, 256 kbps, 48 kHz, Stereo

01 - Fuel
02 - For Whom the Bell Tolls
03 - Battery
04 - King Nothing
05 - Ride the Lightning (followed by Kirk's guitar doodle)
06 - The Unforgiven
07 - Cyanide
08 - Wherever I May Roam
09 - Sad But True (followed by Trujillo's bass doodle)
10 - Turn the Page (Bob Seger cover)
11 - The Frayed Ends of Sanity
12 - One
13 - Master of Puppets
14 - Fade to Black
15 - Seek & Destroy

Encore:
16 - Whiskey in the Jar ([traditional] cover) (Preceded by 'The More I See' Jam)
17 - Nothing Else Matters
18 - Enter Sandman

Duration: 2h13Min