sabato 10 aprile 2021

Dream Theater - 2004-09-22 - Monterrey, MEX (DVDfull pro-shot)


(DVDfull pro-shot)

Dream Theater
Monterrey, Mexico
September 22, 2004
Pro Shot DVD

General
Complete name : VIDEO_TS/VTS_01_3.VOB
Format : MPEG-PS
File size : 1 000 MiB
Duration : 18 min 40 s
Overall bit rate mode : Variable
Overall bit rate : 7 488 kb/s

Video
ID : 224 (0xE0)
Format : MPEG Video
Format version : Version 2
Format profile : Main@Main
Format settings : CustomMatrix / BVOP
Format settings, BVOP : Yes
Format settings, Matrix : Custom
Format settings, GOP : M=3, N=15
Format settings, picture structure : Frame
Duration : 18 min 39 s
Bit rate mode : Variable
Bit rate : 5 803 kb/s
Maximum bit rate : 8 494 kb/s
Width : 720 pixels
Height : 480 pixels
Display aspect ratio : 4:3
Frame rate : 29.970 (30000/1001) FPS
Standard : NTSC
Color space : YUV
Chroma subsampling : 4:2:0
Bit depth : 8 bits
Scan type : Interlaced
Scan order : Top Field First
Compression mode : Lossy
Bits/(Pixel*Frame) : 0.560
Time code of first frame : 00:37:19:00
Time code source : Group of pictures header
Stream size : 775 MiB (77%)
Color primaries : BT.601 NTSC
Transfer characteristics : BT.601
Matrix coefficients : BT.601

Audio
ID : 189 (0xBD)-160 (0xA0)
Format : PCM
Format settings : Big / Signed
Muxing mode : DVD-Video
Duration : 18 min 40 s
Bit rate mode : Constant
Bit rate : 1 536 kb/s
Channel(s) : 2 channels
Sampling rate : 48.0 kHz
Bit depth : 16 bits
Delay relative to video : -647 ms
Stream size : 205 MiB (21%)

01 - About to Crash
02 - Learning to Live
03 - Machine Messiah
04 - Trial of Tears
05 - Stream of Consciousness
06 - Spirit Carries On
07 - Solitary SHell
08 - About to Crash (reprise)
09 - Long Time > Grand Finale
10 - Metropolis, Pt. 1

TRT: 1:16:49





Nessun commento:

Posta un commento