martedì 6 aprile 2021

Scorpions - 1989-08-13 - Moscow, Russia (DVDfull pro-shot)

(DVDfull pro-shot)

Artist: scorpions

Show or Bootleg Title:
Moscow,Russia 1989-08-13 (Hellstorm) Full bootleg version

Show Venue: Moscow Russia

Source: DVD - Pro Shot

Video Quality/Production Info: Very variable

Audio/Video Specs:
General
Complete name : C:\Users\Juzzi\Desktop\Scorpions - Moscow Russia 1989-08-13\VIDEO_TS\VTS_01_1.VOB
Format : MPEG-PS
File size : 1 019 MiB
Duration : 18mn 40s
Overall bit rate : 7 631 Kbps

Video
ID : 224 (0xE0)
Format : MPEG Video
Format version : Version 2
Format profile : Main@Main
Format settings, BVOP : Yes
Format settings, Matrix : Default
Format settings, GOP : M=3, N=15
Duration : 18mn 40s
Bit rate : 7 272 Kbps
Width : 720 pixels
Height : 576 pixels
Display aspect ratio : 4:3
Frame rate : 25.000 fps
Standard : PAL
Color space : YUV
Chroma subsampling : 4:2:0
Bit depth : 8 bits
Scan type : Progressive
Compression mode : Lossy
Bits/(Pixel*Frame) : 0.701
Time code of first frame : 00:00:00:00
Time code source : Group of pictures header
GOP, Open/Closed : Open
Stream size : 969 MiB (95%)

Audio
ID : 192 (0xC0)
Format : MPEG Audio
Format version : Version 1
Format profile : Layer 2
Duration : 18mn 40s
Bit rate mode : Constant
Bit rate : 224 Kbps
Channel(s) : 2 channels
Sampling rate : 48.0 KHz
Compression mode : Lossy
Stream size : 29.9 MiB (3%)

Menu

Format: PAL

Hellstorm79(Juzzi)

01 - Blackout
02 - Bad boys running wild
03 - Big city nights
04 - Rhythm of love
05 - The zoo
06 - No one like you
07 - Hey,Uhnem!
08 - Holiday
09 - Still loving you
10 - Dynamite
11 - Rock you like a hurricane
12 - /all stars performance) with scorpions
13 - Long tall Sally
14 - Hound dog
15 - Rock'n'roll
16 - Give peace a change

Set List/Chapters:
I made this full version about 2 years ago,and this is collected from many sources,so quality is very varible,but now this is full concert version... i made little mistake and this dvd contains "Hey, Uhnem" two times...I hope that does not matter to you... so here we go




Nessun commento:

Posta un commento