martedì 4 maggio 2021

Blondie - 2005-08-20 - Sopot, PL (DVDfull pro-shot)

(DVDfull pro-shot)

Sopot International Song Festival

Lineage: TV > VHS Tape > LG Recorder > HD > TMPGEnc DVD Author

Video Attributes:
ID : 224 (0xE0)
Format : MPEG Video
Format version : Version 2
Format profile : Main@Main
Format settings, BVOP : Yes
Format settings, Matrix : Default
Duration : 4mn 29s
Bit rate mode : Variable
Bit rate : 8 982 Kbps
Nominal bit rate : 9 216 Kbps
Width : 720 pixels
Height : 576 pixels
Display aspect ratio : 4:3
Frame rate : 25.000 fps
Standard : PAL
Resolution : 8 bits
Colorimetry : 4:2:0
Scan type : Interlaced
Scan order : Top Field First
Bits/(Pixel*Frame) : 0.866
Stream size : 289 MiB (93%)

Audio Attributes:
ID : 128 (0x80)
Format : AC-3
Format/Info : Audio Coding 3
Duration : 4mn 30s
Bit rate mode : Constant
Bit rate : 256 Kbps
Channel(s) : 2 channels
Channel positions : L R
Sampling rate : 48.0 KHz
Video delay : -648ms
Stream size : 8.25 MiB (3%)

01 - Atomic
02 - Dreaming
03 - Hanging On The Telephone
04 - X Offender
05 - Good Boys
06 - Maria
07 - Accidents Never Happen
08 - (I'm Always Touched) By Your Presence Dear
09 - The Tide Is High
10 - Rapture
11 - Picture This
12 - Call Me
13 - One Way Or Another
14 - Heart Of Glass



Nessun commento:

Posta un commento