mercoledì 5 maggio 2021

Black Sabbath - 1995-08-25 - Gzira, MLT (DVDfull pro-shot)

(DVDfull pro-shot)

Orpheum Theatre
PRO video recording
DVD (NTSC)

Lineage:
TV Broadcast ("SMASH" local private TV station) > VHS (unknown gen) > DVD

DVD Title:
"When Death Calls Malta" (visible in DVD menu)

Menu:
Yes

Artwork:
Yes

Chapters:
Yes (songs)

Running time: 97:17 min


MediaInfo (for the file "VTS_01_2.VOB"):

General
Complete name : VTS_01_2.VOB
Format : MPEG-PS
File size : 1 023 MiB
Duration : 16s 961ms
Overall bit rate mode : Variable
Overall bit rate : 506 Mbps

Video
ID : 224 (0xE0)
Format : MPEG Video
Format version : Version 2
Format profile : Main@Main
Format settings, BVOP : Yes
Format settings, Matrix : Custom
Format settings, GOP : M=3, N=15
Duration : 16s 961ms
Bit rate mode : Variable
Bit rate : 496 Mbps
Maximum bit rate : 9 555 Kbps
Width : 704 pixels
Height : 480 pixels
Display aspect ratio : 4:3
Frame rate : 29.970 fps
Standard : NTSC
Color space : YUV
Chroma subsampling : 4:2:0
Bit depth : 8 bits
Scan type : Interlaced
Scan order : Top Field First
Compression mode : Lossy
Bits/(Pixel*Frame) : 48.961
Stream size : 1 003 MiB (98%)

Audio
ID : 189 (0xBD)-128 (0x80)
Format : AC-3
Format/Info : Audio Coding 3
Mode extension : CM (complete main)
Muxing mode : DVD-Video
Duration : 5s 632ms
Bit rate mode : Constant
Bit rate : 256 Kbps
Channel(s) : 2 channels
Channel positions : Front: L R
Sampling rate : 48.0 KHz
Bit depth : 16 bits
Compression mode : Lossy
Delay relative to video : -281ms
Stream size : 176 KiB (0%)

Text
ID : 224 (0xE0)-DVD-2
Format : EIA-608
Muxing mode : DVD-Video
Muxing mode, more info : Muxed in Video #1
Bit rate mode : Constant
Stream size : 0.00 Byte (0%) 

01 - Intro tape
02 - Children of the Grave
03 - Neon Knights
04 - The Shining
05 - The Wizard
06 - Get a Grip
07 - Headless Cross
08 - Rusty Angels
09 - When Death Calls
10 - Sabbath Bloody Sabbath
11 - Can't Get Close Enough
12 - War Pigs
13 - Mob Rules
14 - Black Sabbath
15 - Heaven and Hell
16 - Iron Man
17 - Paranoid


Nessun commento:

Posta un commento