Sunday, October 22, 2017

The Rolling Stones - 2013-06-29 - Pilton, UK (ts pro-shot) 15.34 GB

(ts full pro-shot)

Glastonbury Festival
Worthy Farm, Pilton
Somerset, UK

29th June 2013

Lineage: Raw Pyramid Stage Satellite Feed > TBS6922 dvb-s2 pci card > ProgDVB Pro > .ts file

[Moderator's note: we've been informed that the chroma subsampling here is not to DVD specs, and that this .ts file, should the torrent ever complete, will be playable only on a computer.]

Video: MPEG-2 PAL 25fps 16:9 720x576 50000kb/s
Audio: AC3 2.0 256kbps

Format : MPEG-TS
File size : 15.3 GiB
Duration : 2h 16mn
Overall bit rate mode : Variable
Overall bit rate : 16.1 Mbps

Video
ID : 308 (0x134)
Menu ID : 1 (0x1)
Format : MPEG Video
Format version : Version 2
Format profile : 4:2:2@Main
Format settings, BVOP : Yes
Format settings, Matrix : Custom
Format settings, GOP : M=3, N=12
Codec ID : 2
Duration : 2h 16mn
Bit rate mode : Variable
Bit rate : 15.1 Mbps
Maximum bit rate : 50.0 Mbps
Width : 720 pixels
Height : 576 pixels
Display aspect ratio : 16:9
Frame rate : 25.000 fps
Standard : PAL
Color space : YUV
Chroma subsampling : 4:2:2
Bit depth : 8 bits
Scan type : Interlaced
Scan order : Top Field First
Compression mode : Lossy
Bits/(Pixel*Frame) : 1.452
Time code of first frame : 12:09:52:03
Time code source : Group of pictures header
Stream size : 14.3 GiB (93%)

Audio
ID : 256 (0x100)
Menu ID : 1 (0x1)
Format : MPEG Audio
Format version : Version 1
Format profile : Layer 2
Codec ID : 4
Duration : 2h 16mn
Bit rate mode : Constant
Bit rate : 256 Kbps
Channel(s) : 2 channels
Sampling rate : 48.0 KHz
Compression mode : Lossy
Delay relative to video : -526ms
Stream size : 250 MiB (2%)

Menu
ID : 32 (0x20)
Menu ID : 1 (0x1)
List : 308 (0x134) (MPEG Video) / 256 (0x100) (MPEG Audio)
Maximum bit rate : 16145200

01 - Jumpin’ Jack Flash
02 - It’s Only Rock ‘N’ Roll (But I Like It)
03 - Paint It Black
04 - Gimme Shelter
05 - Glastonbury Girl
06 - Wild Horses
07 - Doom And Gloom
08 - Can’t You Hear Me Knocking (with Mick Taylor)
09 - Honky Tonk Women
10 - You Got The Silver (with Keith Richards on lead vocals)
11 - Happy (with Keith Richards on lead vocals)
12 - Miss You
13 - Midnight Rambler (with Mick Taylor)
14 - 2000 Light Years From Home
15 - Sympathy For The Devil
16 - Start Me Up
17 - Tumbling Dice
18 - Brown Sugar

ENCORE
19 - You Can’t Always Get What You Want (with the Voce Choir and members of the London Youth Choir)
20 - (I Can’t Get No) Satisfaction (with Mick Taylor)

Length: 2 hours 16 minutes



3 comments:

  1. does anyone have a hd version of this show or just the bbc 2 broadcasted track of jumpin' jack flash and glastonbury girl in hd?

    ReplyDelete
  2. You can download the HD Version on Youtube
    https://www.youtube.com/watch?v=V9NaxP7VCCc&t=16s
    but you need a plugin for few bucks to concert it in HD

    ReplyDelete