giovedì 30 novembre 2017

The Cure - 2016-11-10 - Cologne, DE (AUD/FLAC) by REQUEST


(Audience FLAC)

The Cure 
Cologne, Germany 2016-11-10 
Venue: Lanxess Arena 
Audience Recording 

Sound: exc (-) 

Lineage: 
SP-CMC-25 with SP-EMC-1 Croakie Mount Option > SP-PREAMP - Sound Professionals - Low Noise Gain-Selectable Portable Stereo Preamp (0db gain) > Edirol R-09HR (16 bit, 44.1 kHz) > WAV to FLAC conversion with Foobar2000 - md5 checksum with Traders Little Helper - Torrent file with µTorrent 

ROBERT SMITH - VOICE & GUITAR 
SIMON GALLUP - BASS 
JASON COOPER - DRUMS 
ROGER O'DONNELL - KEYBOARD 
REEVES GABRELS - GUITAR 

01. Intro > Alt.End 
02. The Walk 
03. Push 
04. In Between Days 
05. Pictures of You 
06. Before Three 
07. High 
08. A Night Like This 
09. The End Of The World 
10. Lovesong 
11. Just Like Heaven 
12. Trust 
13. From The Edge Of The Deep Green Sea 
14. One Hundred Years 
15. End 

Encore 1 
16. Step Into The Light 
17. Want 
18. Burn 
19. A Forest 

Encore 2 
20. Fascination Street 
21. Never Enough 
22. The Hungry Ghost 
23. Wrong Number 

Encore 3 
24. Lullaby 
25. Friday I'm In Love 
26. Doing The Unstuck 
27. Boys Don't Cry 
28. Close To Me 
29. Why Can't I Be You?

The Rollng Stones - 1963-1965 - Beat Beat Beat At The Beeb (STU/FLAC)



(Studio FLAC)

Lineage:
Trade CD's (freq. analysis ok) > EAC (secure) > WAV > FLAC (level 8, align on sector boundaries)

CD 1
Saturday Club, October 26,1963
01. Come On
02. Memphis Tennessee
03. Roll Over Beethoven

Saturday Club, February 8,1964
04. Ain't That Loving You Baby
05. Don't Lie To Me
06. Mona
07. Walking The Dog
08. Bye Bye Johnny
09. I Wanna Be Your Man
10. You Better Move On

Saturday Club, March 8,1964
11. Roll Over Beethoven
12. Beautiful Delilah

Blues In Rhythm, Camden Theater, March 19, 1964 (Stereo)
13. Route 66
14. Cops and Robbers
15. You Better Move On
16. Mona

The Joe Loss Show, April 10, 1964
17. Hi-Heeled Sneakers
18. Little By Little
19. I Just Wanna Make Love To You
20. I'm Moving On

Saturday Club, April 18, 1964
21. Not Fade Away
22. Walking The Dog
23. I Just Wanna Make Love To You
24. Beautiful Delilah
25. Hi-Heeled Sneakers
26. Carol

CD 2
Saturday Club, June 6, 1964
01. Meet Me In The Bottom
02. You Can Make It If You Try
03. Route 66
04. Confessin' The Blues
05. Down The Road Apiece

The Joe Loss Show, July 17, 1964
06. It's All Over Now
07. If You Need Me
08. Confessin' The Blues
09. Carol
10. Mona

Top Gear, July 23, 1964
11. Around and Around
12. If You Need Me
13. I Can't Be Satisfied
14. Crackin' Up

Rhythm and Blues, October 31, 1964
15. 2120 South Michigan Avenue (fades at 3:42)

Top Gear, March 6, 1965

16. Down The Road Apiece
17. Interview
18. Everybody Needs Somebody To Love
19. The Last Time

The Rolling Stones Special, August 30, 1965
20. Mercy Mercy
21. Oh Baby We Got A Good Thing Going
22. The Spider And The Fly
23. Satisfaction

Saturday Club, September 18, 1965
24. Cry To Me
25. Fannie Mae

Notes:
A complete package of the known Rolling Stones BBC appearances. Most tracks are from tape/CD sources, and quality is very good to superb mono/stereo.

The Who - 1969-12-04 - Bristol, UK (SBD/FLAC)


(Soundboard FLAC)

Bristol Hippodrome

Lineage:
Bootleg > EAC Secure Mode > Flac

01 - The Acid Queen (cuts in)
02 - Pinball Wizard
03 - Do You Think It’s Alright
04 - Fiddle About
05 - Tommy Can You Hear Me
06 - There’s a Doctor
07 - Go to the Mirror
08 - Smash the Mirror
09 - Miracle Cure
10 - Sally Simpson
11 - I’m Free
12 - Tommy’s Holiday Camp
13 - We’re Not Gonna Take It
14 - Summertime Blues
15 - Shakin’ All Over
16 - My Generation

It starts in at Acid Queen and goes on from there. The sound is so good and its the last 1969 show being seeded now, so get it!

Nirvana - 1991-12-03 - Nottingham, UK (DVDfull pro-shot)

(DVDfull pro-shot)

SOURCE (PRO #1)

TRANSFER 1

GENERATION:
TV > VHS (x) > DVDR (1)

TRANSFERRED BY:
Allen Deane

When burnt, your generation will be TV > VHS (X) > DVDR (2)

LENGTH Incomplete
14:06

01.Band interviews
02.Drain You (cut)
03.Crowd interviews
04.Sliver (cut)
05.Band interviews
06.Been A Son (cut)
07.Crowd interviews
08.Come As You Are (cut)

Notes for PRO #1:
Multi camera PRO-shot video, broadcast on the Japanese TV show 'Pure Rock'.
Comprises of an interview with the band and fans (about 15 minutes) and clips of 'Smells Like Teen Spirit', 'Drain You', 'Sliver', 'Been A Son', 'Come As You Are' and 'Lithium' (about 07 minutes in total). This video is pending transfer to DVD.
The audio portion is circulating in TV>VID(3)>CDR form, but is missing clips of 'Lithium'.

Notes of nirvanaguide.com

Notes
•The band opened up with a cover of Black Flag's "Six Pack," according to attendees.
•Kurt stopped the show when an over-zealous bouncer started to attack a fan.
•The band switched instruments for a "Sonic Youth-type" encore, during which Krist chanted a "hippy-dippy mantra about love," according to a review.

•PRO #1 - professional video (incomplete)
•Equipment: soundboard > unknown
•Lowest Audio Generation: TV > VHS(2)
•Lowest Video Generation: TV > VHS(2)
•Length / Sound Quality: 10 min / A-
•Includes only parts of "Smells Like Teen Spirit," "Drain You," "Sliver," "Been A Son," "Come As You Are," and "Lithium."
•Broadcast on the Japanese TV show Pure Rock.

Roxy Music - 1979-03-06 - Den Haag, NL (SBD/FLAC)




(Soundboard FLAC)

Roxy Music - Manifesto Tour - 
Title: Girls, Giggles, And Gags 
Dates: March 06, 1979 
Venue: The Congresgebouw, Den Haag, Holland and ? 

Source: Soundbord FM Broadcast Recording 
Lineage: Bootleg Vinyl Record (Funny Tunes Recordings - G.G. 1514) > 96.0KHz/24bit WAV 
> 44.1KHz 16Bit WAV > EAC > FLAC 
* Equalizer / No 

Bryan Ferry: Vocals, Keyboards 
Phil Manzanera: Guitar 
Andy Mackay: Saxophone, Oboe 
Paul Thompson: Drums 
Dave Skinner: Keyboards 
Gary Tibbs: Bass 

Disc.1 
01: Manifesto 
02: Trash 
03: A Song For Europe 
04: Mother Of Pearl 
05: Ain't That So 
06: Stronger Through The Years 
07: Ladytron 

Disc.2 
01: In Every Dream Home A Heartache 
02: Love Is The Drug 
03: Re-make Re-model 
04: Still Falls The Rain 
05: Angel Eyes 
06: Casanova 
07: Trash 
08: Out Of The Blue 

* After me clean up a record scratch noise dropped dramatically.

mercoledì 29 novembre 2017

Lou Reed - 2000-04-24 - Dusseldorf, DE (FM/FLAC)



(FM broadcast FLAC)

VENUE Philipshalle (Rockpalast Special Show)
CITY Düsseldorf

Lineage:
FM > ? > SHN > WAV > remastering > WAV > SBE fix (ShnTools) > FLAC(8)

LOU REED: vocals, electric and acoustic guitar
MIKE RATHKE: electric and acoustic guitar
FERNANDO SAUNDERS: electric and acoustic bass
TONY "THUNDER" SMITH: drums

Disc 1 (65:19)
01. Paranoia Key Of E (4:55)
02. Turn To Me (5:38)
03. Modern Dance (5:17)
04. Ecstasy (4:30)
05. Small Town (4:52)
06. Future Farmers Of America (3:30)
07. Turning Time Around (5:30)
08. Romeo Had Juliette (6:33)
09. Riptide (7:26)
10. Rock Minuet (10:47)
11. Mystic Child (6:13)

Disc 2 (71:01)
01. Mad (7:34)
02. The Last Shot (4:17)
03. Tatters (11:31)
04. Set The Twilight Reeling (9:03)
05. Dime Store Mystery (6:58)
06. The Blue Mask (7:03)
07. Egg Cream (4:58)
08. Who Am I (5:57)
09. Sweet Jane (6:26)
10. Vicious (7:08)

Van Morrison - Turning Lead Into Gold (VAR/FLAC)



(Various FLAC)

VAN MORRISON
A Van-L CD-R Tree Production
Turning Lead Into Gold
The Very Best Of 1999
(Various dates and venues, 1999)
No label

Lineage: Tree Audio CDR's -> EAC (secure/offset correct) -> WAV -> TLH - FLAC Level 8

CDR 1
01 Lonely Avenue (7:27)
02 Ain't Nothing You Can Do (4:03)
The Ross-On-Wye International Festival
Pavilion Theatre, Ross-On-Wye, England
August 21, 1999, the late show

03 In The Afternoon / Don't You Get Me High (12:13)
Oasis Leisure Centre, Swindon, England
Special guests: Chris Barber and Lavern Brown
October 21, 1999

04 I'm Not Feeling It Anymore (9:04)
Town & Country Club, Leeds, England
Special guest: Chris Barber
September 14, 1999

05 Georgia On My Mind (6:16)
The Cheltenham Jazz Festival
Town Hall, Cheltenham, England
April 8, 1999, the late show

06 Goin' Down Geneva (5:43)
The Guinness Fleadh
Motor Speedway, Sportsman Park, Chicago, IL
June 12, 1999

07 All Saint's Day (4:14)
The Stockholm Water Festival
Riddarholmsscenen, Stockholm, Sweden
August 14, 1999

08 Tupelo Honey (6:15)
09 Jackie Wilson Said (3:46)
Roseland Ballroom, New York, NY
June 13, 1999

10 Reminds Me Of You (5:21)
11 Help Me (8:48)
12 Gloria / Who Do You Love (6:43)
Jones Beach Amphitheatre, Wantagh, NY
Special guest: Dr. John
June 14, 1999
Total time: (79:53)

CDR 2
01 Did Ye Get Healed (5:09)
02 I Believe To My Soul (4:11)
The Pavilions, Plymouth, England
Special guests: Chris barber & Chris Farlowe
December 18, 1999

03 New Biography (4:43)
04 It's All In The Game (9:29)
Princess Theatre, Torquay, Wales, England
Special guest: Chris Farlowe
October 22, 1999

05 I've Been Working / Cold Sweat (8:09)
Muziekcentrum Vredenberg, Utrecht, Holland
Special guest: Candy Dulfer
September 24, 1999

06 Philosopher's Stone (11:14)
The Edinburgh Jazz Festival
Playhouse Theatre, Edinburgh, Scotland
Special guests: Chris barber and Candy Dulfer
August 4, 1999

07 Muleskinner Blues (7:50)
08 Vanlose Stairway (5:20)
09 I'm A Fool For You (4:13)
The Cheltenham Jazz Festival
Town Hall, Cheltenham, England
April 8, 1999, the late show

10 The Healing Game (5:45)
11 And The Healing Has Begun (11:18)
The Guildhall, Portsmouth, England
Special guest: Chris Barber
September 20, 1999
Total time: (77:21)

Illustrations by Alan Lee. Front cover adapted from "The Gray Ship Of The Elves". Inside: "In The Halls Of Moria".

Administration & Liners:
Tree administration for this tree was by the legendary Linda Beatty! Two sets of jewel case liners were created for this collection.

Notes:
A year to remember, 1999 was full of stellar performances. Over the past few months, the cream of the crop has been carefully selected and preserved by a generous fellow fan. Every track is a highlight! Selections include fantastic versions of such classics as All In The Game, And The Healing Has Begun, and Ain't Nothin' You Can Do... Cheltenham's smokin' Muleskinner Blues, and the show-stopping Help Me from Jones Beach. In all, over two hours of incredible listening.

The Rolling Stones - 1969-07-05 - London, UK (SBD/FLAC)



(Soundboard FLAC)

Stones In The Park
A Vinyl Gang Product 296
Original VGP CD -> FLAC (EAC) -> You

Hyde Park

Quality:
Excellent ("Down Home Girl" in VG aud)
Taken from tape, not vinyl

01 Eulogy For Brian Jones
02 I'm Yours And I'm Hers
03 Jumpin' Jack Flash
04 Mercy Mercy
05 Stray Cat Blues
06 No Expectations
07 I'm Free
08 Down Home Girl
09 Love In Vain
10 Loving Cup
11 Honky Tonk Women
12 Midnight Rambler
13 (I Can't Get No) Satisfaction
14 Street Fighting Man
15 Sympathy For The Devil

Peter Frampton - 1974-05-07 - Hempstead, NY (SBD/FLAC)




(Soundboard FLAC)

(radio announcer says "Frampton's Camel" and "Peter Frampton Band" at various times)
Ultrasonic Studios, Hempstead, New York - May 7 1974
Excellent Soundboard Recording
WLIR FM?

01 - It's A Plain Shame
02 - Doobie Wah
03 - Lines On My Face
04 - The Lodger
05 - I Wanna Go To The Sun
06 - Do You Feel Like We Do
07 - Jumpin' Jack Flash
08 - White Sugar
09 - Shine On

The Cure - 2016-10-30 - Rome, IT (AUD/IEM/MTX/FLAC) by REQUEST



The Cure - 2016-10-30 - Rome, IT
(AUD/IEM/MTX FLAC)

Place: Rome, Italy 
Venue: Palalottomatica 
Date: 2016 October 30 
Special Guest: The Twilight Sad (not taped) 

2 sources matrix by Alessio 
source #1 (Alessio) "AUDIENCE": CA-11 (cardioids) > preamp 9100 > Edirol R09HR @ 24bit/48Hz 
source #2 (trade) "IN EAR MONITOR": Receiver > Edirol R09 @ 16bit/44.100Hz 

Audio Transfer: SD-Card > USB > PC HDD 
Post Production (Audacity v2.0.5): Volume Boost / 2 sources matrix (75% AUD - 25% IEM) / EQ & Noise Reduction / Track splitting > Flac16 

Main set 
01. Intro 
02. Shake Dog Shake 
04. A Night Like This 
05. The Walk 
06. Push 
07. In Between Days 
08. Play for Today 
09. Step Into the Light 
10. Pictures of You 
11. Lullaby 
12. Kyoto Song 
13. High 
14. Charlotte Sometimes 
15. Lovesong 
16. Just Like Heaven 
17. From the Edge of the Deep Green Sea 
19. Give Me It 

Encores 
20. -- Encore Break #1 -- 
21. It Can Never Be the Same 
22. Burn 
23. A Forest 
24. -- Encore Break #2 -- 
25. Want 
27. Wrong Number 
28. -- Encore Break #3 -- 
29. Robert Talks 
30. The Lovecats 
31. Hot Hot Hot!!! 
32. Let's Go to Bed 
33. Friday I'm in Love 
35. Close to Me 
36. Why Can't I Be You? 

Total running time: 2h37min50sec

Van Halen - 1976-05-29 - Pasadena, CA (SBD/FLAC)




(Soundboard FLAC)

Bootleg title: "Civic Disobedience"

Lineage of show: SB >1st gen cass>Kenwood KX-77CW tape deck>Creative Labs Audigy 2 24bit>WAV>Adobe Audition>WAV>FLAC Frontend>FLAC(level 6)
Quality of show: A+
Transferred by Wooda

01. On Fire 3:40
02. Somebody Get Me A Doctor 4:40
03. Babe Don't Leave Me Alone 3:54
04. Show Your Love 4:53
05. Runnin' With The Devil 3:56
06. Let Me Swim 6:34
07. Let's Get Rockin' 3:01
08. Eyes Of The Night 4:46
09. Simple Rhyme 5:11
10. La Grange 5:54
11. Honolulu Baby 2:43
12. Eruption 2:50
13. House Of Pain 3:20
14. I Live With Fools 5:20

Total Time: 60:42

Notes from Wooda:
QUALITY: What can I say about this show except that it smokes all other versions you will find. Unlike "The Eyes Of Night", this show is complete and not spliced together from other club days shows, and the sound is amazing. The other little problem is that the date and location have been reported wrong for years. The show was played on Saturday May 29th, 1976 and not Sunday May 30th, 1976 which has is the incorrectly circulated date.

NOTES: They play an extremely energetic set, and even hint about hearing the day we would all hear their songs on the radio. This is a must have show.

martedì 28 novembre 2017

Jimmy Page & Robert Plant - 1998-07-14 - Mansfield, MA (ALD/FLAC)



(ALD FLAC)

Jimmy Page & Robert Plant
Great Woods
Mansfield, Massachusetts
July 14, 1998

ALD recording - polarity corrected

Lineage:
ALD in-house FM broadcast => ? => DAT (generation unknown) => DIME => back-end processing

Disc one (61:50):
(1) Egyptian Intro (1:52)
(2) The Wanton Song (3:12)
(3) Bring It On Home (1:32)
(4) Heartbreaker (6:05)
(5) Ramble On (5:47)
(6) Walking Into Clarksdale (7:12)
(7) No Quarter (12:32)
(8) Shining in the Light (4:55)
(9) Going To California (5:13)
(10) Tangerine (3:19)
(11) Gallows Pole (5:35)
(12) Heart In Your Hand (4:34)

Disc two (52:58):
(1) Babe I'm Gonna Leave You (9:39)
(2) How Many More Times (Incl. In The Light, Season of the Witch) (13:55)
(3) Most High (6:48)
(4) Whole Lotta Love (8:33)
(5) Thank You (7:44)
(6) Rock and Roll (6:16)

Artwork, info file, and md5 signature are included.

Comments:
Sometime in the early days of Dime, I converted my DAT recording (acquired in trade, so I don't know the lineage) of Jimmy Page & Robert Plant's Boston show from the "Walking Into Clarksdale" tour. Very little is known in terms of the origins of this recording -- rumors were that this is an in-house Assistive Listening Device (ALD) broadcast that was used at Great Woods around this time, and this is borne out by the fact that there are several other "soundboards" of similar fidelity floating around from this period by other bands. Apparently it made the rounds online and one industrious downloader ("caddy72") discovered that the sound quality could be dramatically improved by reversing the polarity of one of the channels. I personally don't have a clue what this means in technical terms, but apparently it's a common phenomenon with many ALD recordings that the polarity is somehow reversed in the process of broadcast.

lunedì 27 novembre 2017

Kansas - 1980-12-09 - Houston, TX (DVDfull pro-shot)

(DVDfull pro-shot)

The Summit
DVD NTSC

01. Opening / Lohengrin
02. Point Of Know Return
03. Icarus - Borne On Wings Of Steel
04. Paradox
05. Hopelessly Human
06. Cheyenne Anthem
07. Dust In The Wind
08. You Think You've Got It Made
09. Mask Of The Great Deceiver
10. Miracles Out Of Nowhere
11. Loner
12. Anything For You
13. Don't Open Your Eyes
14. Got To Rock On
15. No One Together
16. Hold On
17. Relentless
18. Portrait (He Knew)
19. Carry On Wayward Son



Heart - 1978-10-15 - Largo, MD (DVDfull pro-shot)

(DVDfull pro-shot)

Capital Centre, Largo, MD [NTSC DVD PRO]

Video Quality/Production Info: VERY GOOD PRO-SHOT. PC AUTHORED BY UNKNOWN

LINAGE:
PRO -> Unknown Gen VHS -> Unknown Digital transfer & Authoring -> DVD -> MY HDD -> you

Video 
ID : 224 (0xE0) 
Format : MPEG Video 
Format version : Version 2 
Format profile : Main@Main 
Format settings, BVOP : Yes 
Format settings, Matrix : Default 
Format settings, GOP : M=3, N=15 
Bit rate : 5 287 Kbps 
Maximum bit rate : 6 000 Kbps 
Width : 720 pixels 
Height : 480 pixels 
Display aspect ratio : 4:3 
Frame rate : 29.970 fps 
Standard : NTSC 
Color space : YUV 
Chroma subsampling : 4:2:0 
Bit depth : 8 bits 
Scan type : Interlaced 
Scan order : Bottom Field First 

Audio 
ID : 189 (0xBD)-160 (0xA0) 
Format : PCM 
Format settings, Endianness : Big 
Format settings, Sign : Signed 
Muxing mode : DVD-Video 
Bit rate mode : Constant 
Bit rate : 1 536 Kbps 
Channel(s) : 2 channels 
Sampling rate : 48.0 KHz 
Bit depth : 16 bits 
Delay relative to video : -591ms 
Stream size : 226 MiB (22%) 

Ann Wilson - Vocals, Flute
Nancy Wilson - Guitars, Piano, Vocals
Roger Fisher - Lead Guitar
Michael Derosier - Drums
Steve Fossen - Bass, Vocals
Howard Leese - Keyboards, Guitars, Vocals

01 - Heartless
02 - Devil Delight
03 - Straight On
04 - Magic Man
05 - Love Alive
06 - Magazine
07 - Mistral Wind
08 - Dog & Butterfly
09 - Silver Wheels
10 - Crazy On You
11 - Kick It Out
12 - Barracuda
13 - White Lightning & Wine
14 - Rock 'N' Roll
15 - I Can't Live

Iron Maiden - 1985-03-15 - Los Angeles, CA (SBD/FLAC)



(Soundboard FLAC)

Long Beach Arena

Version 2 : 2nd night : DVD Rip
Source : SDB
Quality : 10
Time Length : 42:17 / 47:02

CD 1
01 - Intro
02 - Aces High
03 - 2 Minutes To Midnight
04 - The Trooper
05 - Revelations
06 - Flight Of Icarus
07 - Rime Of The Ancient Mariner

CD 2
01 - Powerslave
02 - The Number Of The Beast
03 - Hallowed Be Thy Name
04 - Iron Maiden
05 - Run To The Hills
06 - Running Free
07 - Sanctuary

U2 - 1985-06-22 - Milton Keynes, UK (AUD/FLAC)


(Audience FLAC)

Band: U2 
Bootleg: "National Bowl" 
Date: 1985-06-22 
Venue: "The longest day", Milton Keynes Bowl, Milton Keynes, England 
Label: Tiger Records - ER 220685 
Year: 1998 
Format: 2 × CDr, Unofficial Release 
Worldwide Limited Edition: ##/200 
Artwork: Full Artwork 300 dpi Included 

DISC 1 - [44:35:65] 
01-4th of July (PA)/11 O'clock tick tock 
02-I will follow 
03-Seconds 
04-M.L.K. 
05-The unforgettable fire 
06-Sunday bloody sunday 
07-The cry/The electric co. 
08-A sort of homecoming 
09-Bad (malfunction)/Bono telling jokes 
10-Rain/A hard rain's gonna fall 

DISC 2 - [63:08:21] 
01-Bad 
02-October 
03-New year's day 
04-Pride (In the name of love) 
05-Party girl 
06-Gloria 
07-"40" 

1984-11-21, Westfallenhalle, Dortmund, Germany (Soundboard) 
08-The cry/The electric co.
09-M.L.K.
10-Bad
11-October
12-New year's day

Very solid audience deserving a 4,5 stars!

The Cure - 2016-10-29 - Casalecchio di Reno (Bologna), IT (AUD/FLAC)

(Audience FLAC)

The Cure
Unipol Arena
Casalecchio di Reno (Bologna), Italy
2016-10-29
[GP069dm]

--- 16-bit version ---

source: AUD (see location below) > Church Audio CA-14 Cardioids > Church Audio battery box > Edirol R-09 (24-bit/48.0 kHz, LINE-IN, rec. level 30/30) > SDHC Panasonic RP-SDM04G
location: South gallery, row 15, seat 69 (about 60 m from the stage, 15 m left), hat-mounted mic
transfer: SDHC Panasonic RP-SDM04G > HD > Audacity 2.1.2 (editing, see below) > CD Wave 1.98 (track splitting) > r8brain 1.9 (44.1 kHz resampling/very high quality 16-bit dithering) > TLH 2.7.0.172 (level 8 compression) > FLAC

generation: master (no optical media extraction)
taper: Giuseppe Pastorelli [G.P.] (doublec)

Mainset:
01 [1:54] *** intro ***
02 [4:55] Plainsong
03 [7:14] Pictures Of You
04 [4:23] Closedown
05 [4:17] A Night Like This
06 [4:35] Push
07 [3:14] In Between Days
08 [4:45] The Hungry Ghost
09 [4:35] alt.end
10 [3:35] The Walk
11 [4:53] Primary
12 [5:09] If Only Tonight We Could Sleep
13 [4:44] Shake Dog Shake
14 [4:11] Charlotte Sometimes
15 [3:36] Lovesong
16 [3:57] Just Like Heaven
17 [7:48] From The Edge Of The Deep Green Sea
18 [5:35] Prayers For Rain
19 [8:35] Disintegration
20 [3:15] *** encore break 1 ***

Encore 1 (E1 "Seventeen Seconds encore"):
21 [6:01] At Night
22 [3:34] M
23 [4:02] Play For Today
24 [8:06] A Forest
25 [2:26] *** encore break 2 ***

Encore 2 (E2):
26 [5:12] Want
27 [3:00] Never Enough
28 [5:03] Fascination Street
29 [6:32] Burn
30 [2:19] *** encore break 3 ***

Encore 3 (E3):
31 [4:59] Lullaby
32 [4:14] The Caterpillar
33 [3:39] Friday I'm In Love
34 [3:04] Boys Don't Cry
35 [3:33] Close To Me
36 [4:36] Why Can't I Be You?

Total running time [2:45:50]

WAV 16-bit 1.63 GB
FLAC 16-bit 940 MB

Tape story:
The venue is the main arena in Bologna (actually Casalecchio di Reno) formerly known as Futurshow Station and PalaMalaguti I had a seat at the left of the first level gallery in front of the stage at about 60 m from it Very quite people around me (except for the third encore, of course...) The sound of the recording is excellent Several late arrivers with seats in my raw passed in front of me during Closedown, others left their seats during the first encore break and came back during At Night, resulting in temporary muffled sound in both tracks (30+10 secs)

What about the show?
It was my fourth The Cure show (the others were all in the Milan area in 1992, 2008 and 2012; 2008 and 2012 were also taped) A very enjoyable concert with an excellent screen and light show quite uncommon for The Cure A possible "setlist of my dreams" with the "Seventeen Seconds encore", Charlotte Sometimes and also IOTWCS debuting in the European Leg of the 2016 Tour (neglecting 7 pre-1982 tracks!!!... never in this leg) Happy Birthday to Roger was sung at the end of the first encore break

Technical notes:
- The total running time of the recording was 2:47:06; I have cut the first 52 secs and last useless 24 secs reducing the master to 2:45:50.
- I have amplified (+5.5 dB on the left channel, +4.5 dB on the right channel) and slightly compressed (-12 dB/1.5:1) the whole recording and faded-out the last 10 secs
- If you burn to audio CD, you will need 3 CDs (CD1: 01-13; CD2: 14-25; CD3: 26-36)

Joe Ely - 2014-03-01 - Dallas, TX (AUD/FLAC)



(Audience FLAC)

Joe Ely
with Joel Guzman
Poor David's Pub
Dallas, Texas USA
March 1, 2014

Quality: Excellent audience
Lineage: Core Sound Binaurals (w/bass rolloff)>Sony MZ-NF810>
Total Recorder>Audio Cleaning Lab 3.0>WAV>FLAC 8
Taper: Mike Rowefoen
Transfer/encoding: joeyjay
Artwork: Chee-Zee
File size: 514 MB

Joe Ely - vocals, guitar
Joel Guzman - accordion, backing vocals

DISC ONE (44:02)
1. Intro
2. All That Your Need (Sow The Seed)
3. Treat Me Like A Saturday Night
4. All Just To Get To You
5. A Thousand Miles From Home >
6. I Ain't Been Here Long
7. Row Of Dominoes
8. Tonight I Think I'm Gonna Go Downtown
9. Banter
10. West Texas Waltz
11. Banter
12. Because Of The Wind

DISC TWO (60:22)
1. Me And Billy The Kid
2. Dallas
3. Banter
4. Mockingbird Hill
5. Banter
6. Gimme A Ride To Heaven, Boy
7. White Freightliner Blues
8. Banter
9. Live Forever
10. Encore applause
11. The Highway Is My Home
12. Ranches And Rivers
13. I'm Gonna Strangle You, Shorty
14. Streets Of Sin
15. Banter
16. Cool Rockin' Loretta

Notes: Here's a really good show worthy of your collection, for a couple of reasons. One, Joe brought old friend Joel along for this "duo" gig ... it was good to see/hear them together again in Big D. Secondly, Joe was coming off "a rough couple of weeks" that Ol' Mike has understood to include personal loss. Live music, the great healer. The setlist leaned heavily on West Texas touchstones. Though we've heard these tunes scores of times, some seemed to carry more weight this night. Ol' Mike would even say Joe's spirit was rallied by the cathartic edge inherent in some songs and by the enthusiastic love from the crowd. Give a close listen as he sings "Live Forever" ... Joe's voice occasionally catching, or trailing off as he turns his head away from the mic (and crowd). Well, imagined or not, that gave Ol' Mike the chills - that's his story and he's sticking to it. Sound is great, especially through headphones. Of course, thanks go to Joe (and Joel) for all those golden nights of music and memories for us. Also kudos to Dallas live music icon Poor David for bringing in all the quality artists for lo these many decades, including Joe every year since 1984, in an intimate venue. Continued thanks to The Coin for the now-retired surrogate mics and to D. Ortiz (working forwardly to see his way off the DL) for the current loaners.

domenica 26 novembre 2017

Black Sabbath - 2016-09-19 - Los Angeles, CA (SBD/FLAC)


(Soundboard FLAC)

Black Sabbath 
September 19, 2016 
Hollywood Bowl 
Los Angeles, California, USA 

Concert tracklist (1:42:39):
01 Intro 
02 Black Sabbath 
03 Fairies Wear Boots 
04 After Forever 
05 Into The Void 
06 Snowblind 
07 War Pigs 
08 Behind The Wall Of Sleep 
09 Bass Solo & N.I.B. 
10 Hand Of Doom 
11 Rat Salad & Drum Solo 
12 Iron Man 
13 Dirty Woman 
14 Children Of The Grave 
15 Paranoid 

Soundcheck (0:36:05) 
16 Mic 
17 Keyboards & Rhythm Guitar 
18 Drums 
19 Bass & Symptom Of The Universe (Instr.) 
20 Sweet Leaf (Instr.) 
21 Iron Man 
22 Guitar & Bass 

Notes: 
Track 17 incl. bits of Changes and the Sabbath Bloody Sabbath riff 
Track 22 incl. bits of the Heaven And Hell riff (at very low volume)

Eric Clapton - 1975-04-14 - Brisbane, AU (SBD/FLAC)


(Soundboard FLAC)

Festival Hall

Low-generation tape transfer/speed-corrected -- "JTT version"

Lineage:
Low Generation Cassette > Akai GX95 (Playback) > Soundforge 9 > FLAC Frontend Level 6 Align on Sector Boundaries

Disc one (63:51):
(1) Introduction (0:46)
(2) Badge (9:47)
(3) Milk Cow Blues (8:34)
(4) Have You Ever Loved a Woman (7:48)
(5) Steady Rolling Man (16:22)
(6) Can't Find My Way Home (6:06)
(7) Teach Me To Be Your Woman (6:19)
(8) Let It Rain (8:05)

Disc two (55:35):
(1) Nobody Knows You When You're Down and Out (9:22)
(2) I Shot The Sheriff (12:30)
(3) Layla (8:19) =>
(4) All I Have To Do Is Dream (2:49)
(5) Little Wing (16:34)
(6) Little Queenie (5:58)

Info file, ffp, artwork, and md5 signature file are included.

Comments:
This recording has circulated in the snail-mail trading pool since the late 1980s, but this posting (originally shared by "jacksontomthumb" in March 2009) was the first one I remember seeing of known lineage. This show features EC during his brief Australian tour in spring 1975; the 1974-75 dates were notably erratic due to Clapton's "substance issues," and this one appears to be no exception. I always find these shows worthwhile because they feature Clapton at both his highest and lowest -- often within the same song. His guitar work was often spectacular on these dates, but frequently the performances got sloppy and meandering; I don't remember enough from this tour to be able to comment on how this one compares to the rest of the tour. If you're a Clapton fan, they're all worth grabbing because they are always fascinating.

The recording quality is pretty good -- obviously the master is a well-worn analog and prone to limitations in fidelity, but it's quite listenable and has a minimum of hiss or dropouts. The mix is decent, although it would probably benefit from some 21st century EQ work to improve the overall sound. If you're a Clapton collector and don't have this, you will probably find this well worth picking up.

sabato 25 novembre 2017

Chris Cornell - 2009-05-30 - Landgraaf, NL (DVDfull pro-shot)

(DVDfull pro-shot)

Chris Cornell - vocals
Yogi Lonich - guitar
Peter Thorn - guitar
Corey McCormick - bass
Jason Sutter - drums

Lineage:
DVB-S broadcast > TechniSat SkyStar HD 2 > DVBViewer 4.1.1.1 > .ts > ProjectX > TMPGEnc DVD Author 2.1.5.77 > DVD

Broadcast by WDR (Rockpalast) on August 3, 2009

DVD with chapters and menu

Size: 3.20 Gb ( 3 350 400 KBytes ) - DVD-5
Enabled regions: 1, 2, 3, 4, 5, 6, 7, 8

VTS_01 :
Play Length: 00:59:34
Video: PAL 16:9 (720x576) VBR, Auto Letterboxed
Audio:
Not specified (Dolby AC3, 2 ch)
Not specified (MPEG1, 2 ch)

Menu Video:
NTSC 4:3 (720x480) VBR
Auto Pan&Scan, Auto Letterboxed
Menu Language Unit :
Root Menu

SATRip
DVD Video
MPEG2
Mpeg1, ac3
MPEG-2 Video, 720 x 576 (16/9), 6 505 Kbps, 25.000 fps, 0.627 b/px
1: mp2, 192 Kbps, CBR, 48.0 KHz
2: ac3, 448 Kbps, CBR, 48.0 KHz

01. Intro (1:12)
02. Part of Me (4:03)
03. Time (3:52)
04. Watch Out (3:41)
05. You Know My Name (4:34)
06. Hunger Strike (4:03)
07. Show Me How to Live (4:58)
08. Ground Zero (3:18)
09. Never Far Away (3:58)
10. Spoonman (6:13)
11. Be Yourself (4:50)
12. Cochise (3:10)
13. Scream (5:10)
14. Black Hole Sun (6:32)

00:59:34

Oasis - 1998-02-20 - Tokyo, JP (DVDfull pro-shot)

(DVDfull pro-shot)

Source : PRO
Region : PAL
Length : 95
Size : 4.01GB
Resolution : 704x576

01 - Be Here Now
02 - Stand By Me
03 - Supersonic
04 - Roll With It
05 - D'You Know What I Mean?
06 - Cigarettes & Alcohol W\ Whole Lotta Love
07 - Don't Go Away
08 - Help!
09 - Setting Sun
10 - Fade In-Out
11 - Noel Gallagher Interview
12 - Don't Look Back In Anger
13 - Wonderwall
14 - Live Forever
15 - Champagne Supernova
16 - Acquiesce

Albert King & BB King - 1989-05-16 - Tokyo, JP (DVDfull pro-shot)

(DVDfull pro-shot)

SOUND COLISEUM, TOKYO, JAPAN.

not sure of linage

Bb King Band
Bb King......Guitar & Vocals
James Toney....Keyboards
Leon Warren.....Guitar
Michael Doster....Bass
Calep Emphrey...Drums
James Boldem...Trumpet
Edgar Synigal...Saxophone
Walter King...Saxophone

INFO:
Format : MPEG-PS
File size : 1 024 MiB
Duration : 30mn 19s
Overall bit rate mode : Variable
Overall bit rate : 4 722 Kbps

Video
ID : 224 (0xE0)
Format : MPEG Video
Format version : Version 2
Format profile : Main@Main
Format settings, BVOP : Yes
Format settings, Matrix : Custom
Format settings, GOP : M=3, N=15
Duration : 30mn 19s
Bit rate mode : Variable
Bit rate : 4 372 Kbps
Maximum bit rate : 8 832 Kbps
Width : 720 pixels
Height : 480 pixels
Display aspect ratio : 4:3
Frame rate : 29.970 fps
Standard : NTSC
Color space : YUV
Chroma subsampling : 4:2:0
Bit depth : 8 bits
Scan type : Interlaced
Scan order : Top Field First
Compression mode : Lossy
Bits/(Pixel*Frame) : 0.422
Stream size : 948 MiB (93%)
Color primaries : BT.601 NTSC
Transfer characteristics : BT.601
Matrix coefficients : BT.601

Audio
ID : 189 (0xBD)-128 (0x80)
Format : AC-3
Format/Info : Audio Coding 3
Mode extension : CM (complete main)
Format settings, Endianness : Big
Muxing mode : DVD-Video
Duration : 30mn 19s
Bit rate mode : Constant
Bit rate : 256 Kbps
Channel(s) : 2 channels
Channel positions : Front: L R
Sampling rate : 48.0 KHz
Bit depth : 16 bits
Compression mode : Lossy
Delay relative to video : -144ms
Stream size : 55.5 MiB (5%)

**EARLINE OWENS**
- Take Your Hands Off Of Him

**ALBERT KING**
- Outskirts Of Town
- The Sky Is Cryin'
- I'll Play The Blues For You
- Floodin' In California
- Overhaul Junction

**B.B. KING**
- B.B.'s Blues
- Let The Good Times Roll
- When It All Comes Down
- All Over Again
- Why I Sing The Blues
- Darling You Know I Love You
- The Thrill Is Gone

Duration: 1 hour and 30 mins

Awesome video, great performance by these blues legends I think this is taken from TV but not really sure it is for sure a master source the video quality and audio quality is fantastic especially considering the age of the video.

AC/DC - 1978-10-28 - Clochester, UK (DVDfull pro-shot)

(DVDfull pro-shot)

AC/DC Essex University Clochester England October 28th 1978
On BBC'S Rock Goes to College
Digital Satellite Rebroadcast 
on VH1 Classics Krw_co DVD Master

LINEAGE 
VH1-C BROADCAST TO SATELLITE HARD DRIVE RECORDER TRANSFER TO DVD BY KRW_CO ON A PANASONIC STAND ALONE DVD BURNER IN XP MODE

G-SPOT INFO
VIDEO/TV SYSTEM: ntsc 29.97 fps
VIDEO BITRATE: 8855 kbps
ASPECT RATIO: 4:3
SYS BITRATE: 10080 kb/s vbr
AUDIO CODEC: ac3
AUDIO BITRATE: 384 kbps 48000hz stereo 

Bon Scott vocals
Angus Young lead guitar
Malcolm Young rhythm guitar backing vocals
Cliff Williams bass backing vocals
Phil Rudd drums

01 - Live Wire
02 - Problem Child
03 - Sin City
04 - Bad Boy Boogie
05 - Whole Lot Of Rosie
06 - Rocker
07 - Let Thee Be Rock

TOTAL TIME 
50 min 55 sec











ZZ Top - 2003-05-21 - Camden, NJ (DVDfull pro-shot)

(DVDfull pro-shot)

Show Venue:
Tweeter Center

Video Quality/Production Info:
A

Audio/Video Specs:
Video: MPEG-2, NTSC, 720x480, 4231kbps, 4:3
Audio: AC3, 256kb/s, stereo

Format:
NTSC

Guitar/Vocals: Billy Gibbons
Bass/Vocals: Dusty Hill
Drums: Frank Beard

01 - Gimme All Your Lovin'
02 - Pincushion
03 - Waitin' For The Buss
04 - Jesus Just Left Chicago
05 - Precious And Grace
06 - Manic Mecanic
07 - Rough Boy
08 - Cheap Sunglasses
09 - Buck Nekkid
10 - Catfish Blues
11 - I'm Bad I'm Nationwide
12 - Piece
13 - Beer Drinkers And Hell Raisers
14 - Tube Snake Boogie
15 - Sharp Dressed Man
16 - Legs
17 - La Grange
18 - Tush

Aprox 88 min