domenica 31 maggio 2015

U2 - 2015-05-30 - Inglewood, CA (AUD/FLAC)

(Audience FLAC)

U2
The Forum
Inglewood, CA
May 30, 2015

Night three of five. Quite a show. If it comes to your town, check it out. Recorded from the fifth row lower balcony. Right next to the second stage. Samples below.
If burning to CD follow the disc breaks below. If not, the show will play seamless.

Sonic Studios mic>Battery Box>Edirol R-09HR>ProTools (for level adjustment, eq, compression, and song separation)>Flac

Taped and mastered by JB. Please don't sell. Please do not convert to lossy format and upload anywhere.

Disc 1 (59:13)
01. The Miracle (Of Joey Ramone)
02. The Electric Co.
03. Vertigo
04. I Will Follow
05. Iris (Hold Me Close)
06. Cedarwood Road
07. Song for Someone
08. Sunday Bloody Sunday
09. Raised by Wolves
10. Until the End of the World
11. Intermission

Disc 2 (78:59)
01. Invisible
02. Even Better Than the Real Thing
03. Mysterious Ways
04. Elevation
05. Stuck in a Moment You Can't Get Out Of
06. Every Breaking Wave
07. Bullet the Blue Sky
08. Pride (In the Name of Love)
09. Beautiful Day
10. With or Without You

Encore
11. City of Blinding Lights
12. Mother And Child Reunion/Where the Streets Have No Name
13. I Still Haven't Found What I'm Looking For

The Rolling Stones - 2015-05-30 - Columbus, OH (AUD/FLAC)

(Audience FLAC)

Ohio Stadium

Source: Sound Professionals CMC-08s->SP-SB10 (no bass roll-off)->Roland R05->
CoolEditPro->CD Wave->TLH

Taper: ironchef

01. Intro
02. Jumpin' Jack Flash
03. It's Only Rock 'n' Roll (But I Like It)
04. Let's Spend the Night Together
05. Tumbling Dice
06. Doom and Gloom
07. Bitch
08. Wild Horses
09. Hang On Sloopy
10. Paint It Black
11. Honky Tonk Women
12. Band introductions
13. Before They Make Me Run
14. Happy
15. Midnight Rambler
16. Miss You
17. Gimme Shelter
18. Start Me Up
19. Sympathy for the Devil
20. Brown Sugar
21. encore break
22. You Can't Always Get What You Want
23. (I Can't Get No) Satisfaction

Notes:
Recorded from Section E row 41 (Ronnie's side on the floor). My seat was supposed to be quite a bit further back on the field, but they upgraded a bunch of us to the front section, so I ended up being much closer than expected. Despite the threat of rain and that there had been storms earlier in the evening, the weather was perfect for the show. I just love the fact that these guys are still going strong and are capable of putting on a sold show that is very entertaining besides the fact that they are living legends. Catch them while you can, and you won't be disappointed.

Blondie - 2014-06-27 - Pilton, UK (ts pro-shot)

(ts pro-shot)

Glastonbury Festival 
Worthy Farm , Pilton 
Somerset, UK 

Lineage
BBC Four HD - Tevii S464 DVB-S2 PCI Card (DVBViewer) - Videoredo TV Suite 4.2 

.ts file format 

Video
H264 1920x1080i 25fps 

Audio
AC3 2.0 192Kbps 

01 - One Way or Another 
02 - Rave 
03 - Hanging on the Telephone 
04 - Mile High 
05 - Call Me 
06 - Maria 
07 - Rapture/(You Gotta) Fight for Your Right (To Party!) 
08 - Atomic 
09 - Heart Of Glass 

Running Time - 47m

Pink Floyd - 1994-09-17 - Modena, IT (AUD/SHN)



(Audience SHN)

Pink Floyd: Mutinae
Bookmark as: http://www.pf-roio.de/roio/roio-cd/mutinae.cd.html
Format: 2 CD
Catalog: VOX 1001/02 (Vox Records)
Date: 1994-09-17
Front Cover: Sky with some white clouds. On left and right the two stone heads from TDB, the PF symbol from TDB in the middle. The title is written in red on the bottom.
Back Cover: Sky with some white clouds. On the top left, 'EUROPEAN TOUR 1994' is written in yellow. On the top right, the PF symbol from TDB. The tracks are written in black. CDs feature a
picture of Mr screen over Dave Gilmour during the CN solo.
Sources: 17 Sep 1994, Italy, Modena.

Hires-coverscans: Included

Band:
David Gilmour
Nick Mason
Richard Wright

Tim Renwick
Jon Carin
Gary Wallis
Guy Pratt
Dick Parry
Durga McBroom
Sam Brown
Claudia Fontaine

Disc 1:
01 Shine On You Crazy Diamond (1-5,7) 9:21
02 Learning To Fly 5:37
03 High Hopes 8:02
04 Take It Back 5:39
05 Coming Back To Life 7:10
06 Sorrow 11:25
07 Keep Talking 7:37
08 Another Brick In The Wall (part 2) 6:58
09 One Of These Days 8:26

Disc 2:
01 Speak To Me 2:08
02 Breathe 2:40
03 On The Run 4:24
04 Time / Breathe (Reprise) 6:49
05 The Great Gig In The Sky 5:19
06 Money 8:40
07 Us And Them 7:14
08 Any Colour You Like 3:30
09 Brain Damage 3:45
10 Eclipse 2:26
11 Wish You Were Here 5:26
12 Comfortably Numb 10:57
13 Run Like Hell 8:01

Total Length: 141:34 Mins

Xref:The Concert in Modena

Quality:Sup- -PATRICK

Comments:
The best sound heard until now for an audience recording. Theonly drawback is (of course) the crowd. This is a must have

Mutinae is easily the best audience recording I have ever heard. Vocals and instruments are very clear. Sound effects (i.e. "For millions of years man live just like the animals . . .") are a little quiet and the recording seems to be a little heavy on the bass.

There is a very brief drop out somewhere on the first disk (sorry, I forget exactly where) and either a quick mike movement or a fade out during the beginning synthesizer part of Sorrow. The performance itself is absolutely extraordinary. The Dark Side set is much more enjoyable than the one on Pulse and has an excellent Any Colour You Like. During the speaking parts, Dave alternates between Italian and English. I own and have heard a lot of the 94 tour disks and this is by far my favorite. As mentioned in the above review, this is a must-have. - TonyW

Note: Art has incorrect tracklist for CD 1, there is no Intro and the track times are wrong. CD 2 doesnt list Breathe (Reprise) which is part of track 4 after Time.

Show Identifier: Guy Pratt yells "You better park the Ferarri well out of sight!" @ 4:30 Mins during Run Like Hell as Modena is the birthplace of Enzo Ferrari.

MTV Big Bang - 1988-12-31 - Los Angeles/New York (DVDfull pro-shot)

(DVDfull pro-shot)

Show or Bootleg Title:
MTV Big Bang '89 - 88.12.31

Show Venue:
Los Angeles / New York

Source:
DVD - Pro Shot

Video Quality/Production Info:
Quality : A (VOR Productions)

Audio/Video Specs:
Audio - Dolby Digital, 2 channels, 256 kbit/s
Video - 704 x 480, MPEG-2, 4.6 mbits/s

Format:
NTSC

Set List/Chapters:
1) Winger w/Sandra Bernhardt - Alone
2) Robert Plant - Tall Cool One
3) Winger - Madelaine
4) Winger - Seventeen
5) Sam Kinison - Stand-Up Routine
6) Vixen - Edge Of A Broken Heart
7) Vixen - Crying
8) Robert Plant - Ship Of Fools
9) Robert Plant - Heaven Knows
10) Poison - Every Rose Has Its Thorn
11) All-Star Jam - Wild Thing

Menu: Yes
Chapter: Yes
Artwork: Yes



Rod Stewart - 2014-02-22 - Buenos Aires, ARG (2xMPG pro-shot)

(2xMPG pro-shot)

Live The Life Tour 2014

Estadio G.E.B.A. (Gimnasia y Esgrima de Buenos Aires)
Febr. 22, 2014
Buenos Aires Argentina

Source: cable tv
La Viola, TN channel

PAL (25 fps)
MPEG files
24 bits, 720 x 576, 25 fps
Lower Field First
(MPEG-2), 4:3
Video data rate: Variable (Max. 9800 kbps)
Audio data rate: 224 kbps
MPEG audio layer 2, 44.1 KHz, Stereo

part1
01 - This Old Heart Of Mine
02 - Have You Ever Seen The Rain?
03 - Forever Young
04 - Brighton Beach
05 - Meggie May
06 - I Don't Want To Talk About It
07 - Can't Stop Me Now
08 - Da Ya Think I'm Sexy?

Runtme: 39:27 min

part2
01 - Some Guys Have All The Luck
02 - Tonight's The Night
03 - Twistin' The Night Away
04 - Rhythym Of My Heart
05 - Baby Jane
06 - Hot Legs
07 - Have I Told You Lately
08 - You Are In My Heart
09 - Sailing

Runtme: 38:55 min.









Mark Knopfler - 2010-07-09 - Padova, IT (2xDVDfull aud-shot)

(2xDVDfull aud-shot)

Live in Villa Contarini, Piazzola sul Brenta (Padova)

DVD1
01 - Border reiver
02 - What it is
03 - Sailing to Philadelphia
04 - Coyote
05 - Prairie wedding
06 - Hill farmer's blues
07 - Romeo & Juliet (part 1)

DVD2
01 - Romeo & Juliet (part 2)
02 - Done with Bonaparte
03 - Marbletown
04 - Monteleone
05 - Speedway at Nazareth
06 - Telegraph road
07 - Brothers in arms
08 - So far away
09 - Piper to the end

The quality 'audio video is not the best, but the first concert in 2010 upload.

sabato 30 maggio 2015

Tom Waits - 1975-12-16 - Minneapolis, MN (FM/FLAC)



(FM broadcast FLAC)

lienage
KQRS-FM Broadcast > Silver CD > CDRx > EAC > WAV > FLAC >

Goody's additional lineage:
dBpoweramp (WAV) > Cool Edit Pro (Pitch Bender -35 cents; tracking corrections; click/pop removal & static glitch reduction) > Trader's Little Helper (FLAC Level 8, ffp)

01 Introduction 00:40
02 Emotional Weather Report 06:18
03 Eggs And Sausage (Introduction) 05:59
04 Eggs And Sausage 03:08
05 Better Off Without A Wife 04:53
06 Semi Suite 06:35
07 Spare Parts 08:20
08 The Ghosts Of Saturday Night/The Heart Of Saturday Night 08:35
09 New Coat Of Paint 02:27
10 Warm Beer And Cold Women 05:55
11 Virginia Avenue 02:51
12 San Diego Serenade 04:29
13 Putnam County 06:48
14 Ol' 55 04:07

Pitch was approximately 35 cents sharp.
Goody - 10/17/05
Additional edits performed, new ffp created and text upgraded - 7/7/10

Stereo, 44.1 kHz, 16 bit audio. 

Mark Knopfler - 2013-07-14 - Naples, IL (2xDVDfull aud-shot) by REQUEST

(2xDVDfull aud-shot)

Napoli Arena Flegrea

PAL DVD
Video MPEG2: 8.0 Mbps CBR
Audio AC3

Additional info:
A home-made DVD-video containing the concert in Napoli Italy in 2013.
Full concert recorded from first row with FullHD videocamera, great close up and audio.
Authoring KingBalinor

DVD1
1. What It Is 
2. Corned Beef City 
3. Privateering 
4. Father and Son / Hill Farmer's Blues 
5. I Dug Up a Diamond 
6. I Used to Could 
7. Romeo and Juliet 
8. Song for Sonny Liston 

DVD2
1. Band Introduction
2. Postcards from Paraguay 
3. Marbletown 
4. Speedway at Nazareth 
5. Telegraph Road 
6. Brothers in Arms 
7. So Far Away 

giovedì 28 maggio 2015

U2 - 2015-05-26 - Inglewood, CA (AUD/FLAC)



(Audience FLAC)

U2
May 26, 2015
The Forum
Inglewood, CA

Source: DPA 4060’s > CSBox > Sony PCM-M10 16/44.1
Location: GA Floor
Mastering (BLG): Adobe Audition > iZotope Ozone 5 > WavePad > xACT > FLAC
Taper: MH

01 The Miracle (Of Joey Ramone)
02 The Electric Co.
03 Vertigo
04 I Will Follow
05 Iris (Hold Me Close)
06 Cedarwood Road
07 Song for Someone
08 Sunday Bloody Sunday
09 Raised by Wolves
10 Until the End of the World

11 Invisible
12 Even Better Than the Real Thing
13 Mysterious Ways
14 California (There Is No End to Love)
15 Sweetest Thing
16 Every Breaking Wave
17 Bullet the Blue Sky
18 Pride (In the Name of Love)
19 Beautiful Day
20 With or Without You

Encore:
21 City of Blinding Lights
22 Where the Streets Have No Name
23 One

Total Time: 125:31

lunedì 25 maggio 2015

U2 - 2015-05-23 - Phoenix, AZ (AUD/FLAC)

(Audience FLAC)

U2
2015.05.23
US Airways Center
Phoenix, AZ

Taped and transferred by opsopcopolis

Lineage: CA-11 (cardiod) > Ugly Battery Box > Tascam DR-05 > ProTools > WAV > xACT > FLAC

Setlist:
01. Intro (People Have the Power)
02. The Miracle (Of Joey Ramone)
03. Vertigo (snippet) / Out Of Control
04. Do You Remember Rock 'n' Roll Radio? (snippet) / Vertigo
05. I Will Follow
06. Iris (Hold Me Close)
07. Cedarwood Road
08. Song For Someone
09. Sunday Bloody Sunday
10. Raised By Wolves / Psalm 23 (snippet)
11. Until The End Of The World / Macbeth Act 5 Scene 1 (snippet)

12. (Intermission)

13. Invisible
14. Even Better Than The Real Thing
15. Mysterious Ways / Young Americans (snippet)
16. Angel Of Harlem
17. When Love Comes To Town
18. Every Breaking Wave
19. Bullet The Blue Sky / Whole Lotta Love (snippet) / 19 (snippet)
20. The Hands That Built America
21. Pride (In The Name Of Love)
22. Beautiful Day / One (snippet)
23. With Or Without You

24. Encore Break
25. Miracle Drug
26. Mother And Child Reunion (snippet) / Where The Streets Have No Name / California (There Is No End To Love) (snippet)
27. One

U2 - 2015-05-22 - Phoenix, AZ (AUD/FLAC)

(Audience FLAC)

U2
2015.05.22
US Airways Center
Phoenix, AZ

Taped and transferred by opsopcopolis

Lineage: CA-11 (omni) > Ugly Battery Box > Tascam DR-05 > ProTools > WAV > xACT > FLAC

Setlist:
01. Intro (People Have the Power)
02. The Miracle (Of Joey Ramone)
03. The Electric Co. / Send In The Clowns (snippet) / I Can See For Miles (snippet) / Anyway, Anyhow, Anywhere (snippet)
04. Vertigo / God Save The Queen (Sex Pistols) (snippet)
05. I Will Follow
06. Iris (Hold Me Close)
07. Cedarwood Road
08. Song For Someone
09. Sunday Bloody Sunday
10. Raised By Wolves / Psalm 23 (snippet)
11. Until The End Of The World

12. (Intermission)

13. Invisible
14. Even Better Than The Real Thing
15. Mysterious Ways / Young Americans (snippet)
16. Desire
17. In God's Country
18. Sweetest Thing
19. Every Breaking Wave
20. Bullet The Blue Sky / America (snippet) / 19 (snippet)
21. The Hands That Built America
22. Pride (In The Name Of Love)
23. Beautiful Day / Sgt. Pepper's Lonely Hearts Club Band (snippet)
24. Bad / Moment of Surrender (snippet)
25. With Or Without You

26. Encore Break
27. City Of Blinding Lights
28. Mother And Child Reunion (snippet) / Where The Streets Have No Name / California (There Is No End To Love) (snippet)
29. I Still Haven't Found What I'm Looking For

Notes:
Flew out to Phoenix from DC for these shows and ended up grabbing a last minute GA ticket from ticketmaster for the first show. Has a fair bit of crowd noise and the music isn't as well defined as night 2, but I still think it came out pretty well considering the location of the arrays.

domenica 24 maggio 2015

Kings of Leon - 2011-06-12 - Landgraaf, NL (DVDfull pro-shot)

(DVDfull pro-shot)
(DVDfull pro-shot) 

Pinkpop Festival

Lineage:
DVBroadcast(vpro)>Thomson DC/62UPC>Scart>Philips DVDR3600>DVD>PC

Additional authoring: TMPGEnc Authoring Works 4 (menu/chapters)

Video: 
PAL 25 fps, I/L TFF, 16:9 (720 x 576), MPEG2 9193-9216 kbps

Audio: 
AC3 CBR, 48000Hz 256 kb/s tot , stereo (2/0) (GSpot)

Caleb Followill - guitar, vocals
Matthew Followill - guitar, backing vocals
Jared Followill - bass, backing vocals
Nathan Followill - drums, backing vocals
Chris Coleman - keyboards, backing vocals, percussion, guitar

01 - Four Kicks
02 - Taper Jean Girl
03 - The Bucket
04 - Radioactive
05 - My Party
06 - The Immortals
07 - Fans
08 - Back Down South
09 - Crawl
10 - No Money
11 - Charmer
12 - Notion
13 - Closer
14 - Pyro
15 - Mary
16 - Molly's Chambers
17 - On Call
18 - Knocked Up
19 - Use Somebody
20 - Sex On Fire
21 - Black Thumbnail

Total run time: 01:31:16

Notes: 
vpro/cultura24/live logo, strobing, DVD9 = Dual-layer DVD.
Recorded/authored by jabulon, artwork by nexamis.




Robert Plant - 2015-03-28 - Sao Paulo, BR (ts pro-shot)

(ts pro-shot)

Lollapalooza 2015 
Autódromo de Interlagos - São Paulo - Brazil 
2015-03-28 

Source: Multishow HD 
Lineage: Local cable TV operator > Receiver > PC HD > TS-Doctor (cutting) 

Video: 
Format : AVC 
Format profile : High@L4.0 
Duration : 1h 16mn 
Bit rate mode : Variable 
Bit rate : 7 025 Kbps 
Maximum bit rate : 40.0 Mbps 
Width : 1 920 pixels 
Height : 1 080 pixels 
Display aspect ratio : 16:9 
Frame rate : 29.970 fps 
Color space : YUV 
Chroma subsampling : 4:2:0 
Bit depth : 8 bits 
Scan type : MBAFF 
Stream size : 3.78 GiB (90%) 

Audio: 
Format : AC-3 
Duration : 1h 16mn 
Bit rate mode : Constant 
Bit rate : 384 Kbps 
Channel(s) : 6 channels 
Channel positions : Front: L C R, Side: L R, LFE 
Sampling rate : 48.0 KHz 
Bit depth : 16 bits 
Compression mode : Lossy 
Delay relative to video : 189ms 
Stream size : 211 MiB (5%) 
Language : English 

01 - Babe, I'm Gonna Leave You 
(Joan Baez cover) 
02 - Rainbow 
03 - Black Dog / Arbaden (Maggie's Baby) 
(Led Zeppelin song) (Songs by: Led Zeppelin / himself) 
04 - Turn It Up 
05 - Going to California 
(Led Zeppelin song) (with band introductions) 
06 - Spoonful 
(Willie Dixon cover) 
07 - The Lemon Song 
(Led Zeppelin song) 
08 - Little Maggie 
09 - What Is and What Should Never Be 
(Led Zeppelin song) 
10 - Fixin' to Die 
(Bukka White cover) 
11 - Whole Lotta Love 
(Led Zeppelin song) 

Encore: 
12 -Rock and Roll 
(Led Zeppelin song)

Bruce Springsteen - 2012-07-07 - Roskilde, DK (IEM/FLAC)



(IEM FLAC)

Title: N/A 
Label: N/A 
Catalog #: N/A 
Format: 3 CDR 
Source: IEM
Bruce Base: http://brucebase.wikispaces.com/2012#070712 
Story Teller: http://brucebase.wikispaces.com/2012-07-07+-+FESTIVALPLADSEN%2C+ROSKILDE%2C+DENMARK+%28Roskilde+Festival%29
Total Time: 2 hours 55 minutes 32 seconds
Date: July 07th 2012
Location: Festivalplasden, Roskilde, Denmark 

Transfer/Trade and Generation Info: files wav trade -> Nero Wave Editor -> Split -> TLH -> Flac (level 8) Align on Sector Boundaries. 
Include: md5 (wav/flac), ffp, schntool info/len/legend, Frequency-Spectral Analysis, Artworks, Info file and Par2 Recovery Files at 10%. 

CD 1: (62:52) 
01 No Surrender (5:29) 
02 Badlands (6:16) 
03 Two Hearts (3:53) 
04 We Take Care Of Our Own (4:35) 
05 Wrecking Ball (6:25) 
06 Death To My Hometown (5:16) 
07 My City Of Ruins (13:04) 
08 Spirit In The Night (10:58) 
09 The E Street Shuffle (6:56) 

CD 2: (38:10) 
01 Jack Of All Trades (6:49) 
02 Trapped 5:09) 
03 Because The Night (5:43) 
04 Working On The Highway (4:57) 
05 Shackled And Drawn (6:58) 
06 Waiting On A Sunny Day (8:34) 

CD 3: (74:30) 
01 The River (start cut) (6:16) 
02 The Rising (5:06) 
03 Out In The Street (5:48) 
04 Land Of Hope And Dreams (8:02) 
05 Intro (2:39) 
06 We Are Alive (6:28) 
07 Born In The USA (4:58) 
08 Born To Run (5:35) 
09 Glory Days (5:59) 
10 Dancing In The Dark (7:08) 
11 Tenth Avenue Freeze-Out (6:37) 
12 Crowd (1:07) 
13 Twist And Shout (6:37) 
14 Outro (2:10) 

End: ca. 00:11am 

NOTE: 
I received this UNCIRCULATED IEM audio in wav file from an anonymous person, only The River has the first 2 seconds missing that i edited with a patch using the LB audience version. 
I left both songs, both the original ones, that the ones edited, to maintain the source's integrity and have the constant sound in the CDs. 

From Brucebase: 
Audience tape (by LB). Pro-shot video of "The E Street Shuffle" is subsequently posted to Bruce's Youtube channel. Springsteen and band perform on the Orange Stage at Denmark's Roskilde Festival. Back to a more standard 26-song / ~three hour festival set, featuring members of The Roots (Black Thought, F. Knuckles, Captain Kirk Douglas, Damon “Tuba Gooding Jr.” Bryson, James Poyser, and Mark Kelley) on "The E Street Shuffle" and again for the finale "Twist And Shout". They played the same stage earlier in the day. "Two Hearts" includes "It Takes Two". "My City Of Ruins" includes a snippet of "Sad Mood". Set features the 300th performance of "No Surrender". First ever performances in Denmark of "We Take Care Of Our Own", "Wrecking Ball", "Death To My Hometown", "The E Street Shuffle", "Jack Of All Trades", "Shackled And Drawn", and "We Are Alive". Patti Scialfa is not present. 

Blondie - 2014-05-13 - London, UK (DVDfull pro-shot)

(DVDfull pro-shot)

Blondie - Maida Vale Studios, London, BBC (13th May 2014)

This is a PAL DVD ISO Image File

Video:-
Format : MPEG 2
File size : 3.6 GB
Bit rate : 9000 Kbps
Width : 720 pixels
Height : 576 pixels
Frame rate : 25.000 fps
Standard : PAL
Audio:-
Bit rate : 192 Kbps
Bit rate mode : CBR
Channel(s) : 2 channels
Sampling rate : 48 KHz
Resolution : 16 bits

01 - Sugar On The Side
02 - Hanging On The Telephone
03 - Call Me
04 - Mile High
05 - Atomic
06 - Heart Of Glass
07 - One Way Or Another
08 - Rose By Any Name
09 - Rapture
10 - (You Gotta) Fight For Your Right (To Party)

11 - Newsnight Interview

Bonus Footage - Live On The Daily Show (14th May 2014)
01 - Sugar On The Side
02 - Interview
03 - One Way Or Another

Running Time:- 60 Minutes

Alright here's the brilliant 40th Anniversary live performance from Blondie in May 2014. This was shown on the BBC Red Button channel, the quality is superb and as an added bonus i have included the BBC2 Newsnight interview and also there appearance on the Daily Show, I encoded the web exclusive HD version because it had an extra track... This is an excelent 60 minutes of a 40 year old Blondie who are still a quality live act... Another excellent addition to everyones ever growing Punk Rock DVD library...
Fully authored and ready to burn as usual enjoy, your friend Bandit999

Bon Jovi - 2010-02-12 - Honolulu, HI (DVDfull aud-shot DL)

(DVDfull aud-shot DL)

Show Venue:
Neal S. Blaisdell Arena, Honolulu, HI, USA

Source:
DVD - Audience

Video Quality/Production Info:
Video: A-, Audio: A-

Audio/Video Specs:
Video Attributes:
Video compression mode: MPEG-2
Aspect Ratio: 4:3
Source picture resolution: 720x480
Frame Rate: 29.970
Bitrate: 6095 kbps

Audio Attributes:
Audio Coding mode: Stereo 2.0
Audio Codec: AC3
Sampling Rate: 48000 Hz
Bitrate: 384 Kb/s

Format:
NTSC

Set List/Chapters:
01. Lost Highway (Promo)
02. Blood On Blood
03. We Weren't Born To Follow
04. You Give Love A Bad Name
05. Born To Be My Baby
06. Get Ready
07. Roulette
08. Only Lonely
09. Shot Through The Heart
10. Thorn In My Side
11. When We Were Beautiful
12. Whole Lot of Leavin'
13. Superman Tonight
14. We Got It Goin' On
15. It's My Life
16. Bad Medicine
17. (You Want To) Make a Memory
18. Hallelujah
19. Diamond Ring
20. I'll Be There For You
21. Bed of Roses
22. Brokenpromiseland
23. Work for the Working Man
24. Have a Nice Day
25. Who Says You Can't Go Home
26. Love's the Only Rule
27. Wanted Dead Or Alive
28. Tokyo Road
29. Livin' on a Prayer









PFM - 1977-08-31 - Huntington Beach, CA (AUD/FLAC) by REQUEST



(Audience FLAC)

PREMIATA FORNERIA MARCONI (PFM) 
Golden Bear Club 
Huntington Beach, Calif. USA 
August 31, 1977 

This is circulating in MP3 format. 
Here is a NEW A/D TRANSFER FROM A 2nd GEN CASSETTE. 
So it can now be traded on lossless torrent sites. 

I did not create the covers but I cut the tracks to match the track list. 

Sound Quality: (B) EX sound Stereo 

Transfer: 
PB Pioneer CT-F1000>ASUS Xonar DG Sound Card>Audacity 2.0 @96k/24bit>Normalized>Export 44.1k/16bit Flac8>TLH SBE fixed>You 

Franz Di Cioccio - drums, vocals 
Patrick Djivas - bass 
Francone Mussida - guitars 
Flavio Premoli - keyboards, vocals 
Gregory Bloch - violin 
Bernardo Lanzetti - vocals, guitar 

disc one: 
01.Out Of The Roundabout 
02.Left-Handed Theory 
03.Meridiani 
04.Storia in "La" 
05.Peninsula 
06.Jet Lag 

disc two: 
07.La Luna Nuova (Four Holes In The Ground) 
08.Bass Intro 
09.Traveler / Violin Solo / Traveler (reprise) 
10.Impressioni Di Settembre (closing section) 
11.Celebration / Country jam 
12.Cerco la lingua 

[85:00] 

Southside Johnny - 2015-02-27 - Asbury Park, NJ (AUD/FLAC) by REQUEST

(Audience FLAC)

Southside Johnny and the Asbury Jukes
Feb. 27, 2015
The Stone Pony
Asbury Park, NJ

"Rare Jukes: All the Non-Hits, All the Time"

Church Audio cardioid mic's CA-14s > Church Audio pre-amp 9100 > Edirol R-09HR @ 24/96 > Adobe Audition 6 for dithering and downsampling > CD wav > flac

Recorded by Paul
Edited by Kathleen

Southside Johnny, vocals, harmonica and percussion
Jeff Kazee, keyboards, accordion and percussion
John Conte, bass
Glenn Alexander, guitar
Tom Seguso, drums
Doug DeHays, tenor sax and baritone sax
Chris Anderson, trumpet
Neal Pawley, trombone and acoustic guitar

01 Intro
02 Theme from Star Trek
03 Expressway to Your Heart
04 Somebody to Love You
05 I'm So Anxious
06 Talk to Me (first half)
07 Little Calcutta
08 Ain't Gonna Eat out My Heart Anymore
09 No Easy Way Down
10 Cry to Me
11 Everybody Needs Somebody to Love
12 The Letter
13 Your Precious Love
14 Fannie Mae
15 The Fever
16 Ain't That Peculiar
17 Drown in My Own Tears (sung by Jeff Kazee)
18 Ride the Night Away
19 When You Dance
20 Little by Little
21 Look on Yonder Wall
22 Woke up This Morning
23 The Dark End of the Street
24 Snatching It Back
25 Cover Me
26 Audience waiting for encore and singing Mandy

Encore:
27 All the Way Home
28 You Can't Bury Me
29 Tenth Avenue Freeze Out (with 2 guest singers)

The sound is excellent (to a point). We were lucky to be in an area that was not loud. Though you will hear the guy next to me offer me a drink during Fever - he was being nice LOL. However you will notice that Johnny fades in and out over the course of the show. Since our recording levels never changed the changing sound was due to the venue and the soundboard.

sabato 23 maggio 2015

Neil Young - 2001-07-24 - Rotterdam, NL (AUD/FLAC)



(Audience FLAC)

Sportpaleis Ahoy


Neil Young - vocals, guitar, piano, pump organ 
Frank Sampedro - guitar, keyboards, vocals 
Billy Talbot - bass, vocals 
Ralph Molina - drums, vocals 
Pegi Young - vocals 
Astrid Young - vocals

Disc 1 
1 Don't Cry No Tears 
2 I've Been Waiting For You 
3 Love And Only Love 
4 Piece Of Crap 
5 Goin' Home 
6 Hold You In My Arms 
7 From Hank To Hendrix 
8 Don't Let It Bring You Down 
9 Out On The Weekend 
10 Long May You Run 
11 Only Love Can Break Your Heart 
12 Standing In The Light Of Love 
13 Gateway Of Love 

Disc 2 
1 Hey Hey, My My 
2 Sedan Delivery 
3 Like A Hurricane 
4 Tonight's The Night 
5 Come On Baby Let's Go Downtown 
6 Rockin' In The Free World 
7 Powderfinger 
8 Down By The River 

Disc 3 
1 Roll Another Number 
2 Goin' Home 
3 Pocahontas * 
4 After the Gold Rush * 
5 Opera Star * 
6 Cortez the Killer * 
7 Fuckin' Up ** 
8 Don't Say You Love Me *** 
9 The Losing End **** 
10 Welfare Mothers ***** 

* Rotterdam, Netherlands, 6-21-01 (Date on artwork is wrong!) 
** Birmingham, England, 6-15-01 
*** Brescia, Italy, 7-9-01 
**** Oslo, Norway, 7-4-01 
***** Vienne, France, 7-17-01 

Led Zeppelin - 1977-04-30 - Pontiac, MI (AUD/FLAC) TDOLZ


(Audience FLAC)

Title: Hot Rods In Pontiac
Date: April 30, 1977
Venue: Pontiac Silverdome, Pontiac, MI, USA
Label: The Diagrams Of Led Zeppelin
Number: TDOLZ VOL.013
Source: Silvers > EAC > WAV > FLAC Frontend > FLAC

Disc 1
01 The Song Remains The Same
02 The Rover / Sick Again
03 Nobody's Fault But Mine
04 In My Time Of Dying
05 Since I've Been Loving You
06 No Quarter

Disc 2
01 Ten Years Gone
02 The Battle Of Evermore
03 Going To California
04 Black Country Woman
05 Bron-Y-Aur Stomp
06 White Summer / Black Mountain Side
07 Kashmir

Disc 3
01 Out On The Tiles / Moby Dick
02 Guitar Solo (includes Star Spangled Banner)
03 Achilles Last Stand
04 Stairway To Heaven
05 Rock And Roll
06 Trampled Underfoot

John Zorn's - 2014-09-05 - New York, NY (AUD/FLAC) by REQUEST

(Audience FLAC)

John Zorn's "Angels at the Vanguard" residency
Sept 5 2014, early set
Village Vanguard, New York, NY, USA

lineage
CA-14 > battery box/bass filter > iRiver H140 > Audacity > you

Masada String Trio
Erik Friedlander (cello)
Greg Cohen (bass)
Mark Feldman (violin)
John Zorn (conducting)

01. Introduction
02. Khebar
03. Mibi
04. Symnay
05. Tufiel
06. Azazel
07. Bethor
08. Tabaet
09. Rsassiel
10. Garzanal
11. Meholalot
12. (clapping, talking)
13. Bikkurim

The Who - 1989-08-09 - Atlanta, GA (3xDVDfull pro-shot)

(3xDVDfull pro-shot)

The Who
Lakewood Amphitheater
Atlanta, Georgia
August 9, 1989

3xDVD's

A Gold Hawk DVD Production [GH_DVD_WHO_007]

Menu's & Chapters added by hntgzr

Source: Pro-Shot TV Broadcast > Low Generation VHS Tape > SA Recorded DVD > PC Authored DVD

Video: NTSC 720x480 29.97fps 9000kbps VBR
Aspect Ratio: 4:3 Generic
Audio: Dolby Digital Ac3 48khz 256kbps
Menu Audio: Dolby Digital Ac3 48khz 256kbps

Band line-up:
Roger Daltrey, John Entwistle, Pete Townshend

John 'Rabbit' Bundrick, Simon Phillips, Steve 'Boltz' Bolton, Jody Linscott,
Neil Sidwell, Simon Clarke, Tim Sanders, Simon Gardner, Ronnie Lorrimar,
Billy Nichols, Chyna & Cleveland Watkiss

Disc 1
01 - Introduction
02 - Overture
03 - 1921
04 - Amazing Journey
05 - Sparks
06 - The Acid Queen
07 - Pinball Wizard
08 - We're Not Gonna Take It
09 - See Me Feel Me
10 - I'm One
11 - Dig
12 - Let My Love Open The Door
13 - Face The Face
14 - I'm A Man

Disc 2
01 - I Can't Explain
02 - Substitute
03 - I Can See For Miles
04 - Trick Of The Light
05 - Boris The Spider
06 - Who Are You
07 - Intermission!
08 - Magic Bus
09 - Mary Anne With The Shaky Hand
10 - Baba O'Riley
11 - My Generation
12 - A Little Is Enough
13 - 5.15
14 - Love Reign O'er Me

Disc 3
01 - Sister Disco
02 - Rough Boys
03 - Join Together
04 - You Better You Bet
05 - Behind Blue Eyes
06 - Won't Get Fooled Again
07 - Band Introductions - "The F**king Who"
08 - Eminence Front
09 - Pictures Of Lily
10 - Summertime Blues

Info, artwork, DVD Decrypter info, and md5 signature file are included. Menus are included in each DVD, with songs individually chaptered.

Comments: This was originally sourced on the fantastic, now-defunct "longliverock" torrent site about ten years ago; the quality is exceptional. I have long wanted to post it to DIME, but found that one of the archive DVDs I saved it on was corrupted, so I had to wait until a month or so ago when it was re-shared on the "electric ladyland" site for me to get a new copy. Hopefully this one will find a new audience on Dime; the quality is really outstanding -- if you are a fan of this era of The Who, you will definitely want this.

In terms of performance, the band had lost a little steam at this point of the tour; the early dates were all well over three hours and featured an eclectic mix of rarities and hits. By this point of the tour, the set had shortened to a little under three hours (still a generous length, for this band) but the "Tommy" set had been trunctated and the rarities were largely eliminated. There are still a few nuggets to make this interesting for the long-time fan -- "Mary Anne" makes its appearance early in the second second set, and the unusual "Pictures of Lily" shows up in the encore. Though the setlist is relatively conservative, the performance in their final show of three nights in Atlanta is great.

Again, purists may argue that this isn't the "real" Who, but this one is still pretty good, and well worth having for the most casual or hardcore Who fan.

Here is some info on the DVD, courtesy of "KMP Player":
General
Format : MPEG-2 Video
Video
Format : MPEG Video
Format profile : Main@Main
Format settings, BVOP : Yes
Format settings, Matrix : Custom
Format settings, GOP : M=3, N=15
Bit rate mode : Variable
Bit rate : 8 236 Kbps
Maximum bit rate : 9 555 Kbps
Width : 704 pixels
Height : 480 pixels
Display aspect ratio : 4:3
Frame rate : 29.970 fps
Standard : NTSC
Color space : YUV
Chroma subsampling : 4:2:0
Bit depth : 8 bits
Scan type : Interlaced
Scan order : Top Field First
Compression mode : Lossy
Bits/(Pixel*Frame) : 0.813
Time code of first frame : 00:02:31:15
Time code source : Group of pictures header
Stream size : 950 MiB (95%)
Color primaries : BT.601 NTSC
Transfer characteristics : BT.601
Matrix coefficients : BT.601
Audio
Format : MPEG Video
Format settings, Endianness : Custom
Stream size : 8 bits