mercoledì 31 ottobre 2018

Elton John and Leon Russell - 2010-10-19 - New York City, NY (DVDfull pro-shot DL)

(DVDfull pro-shot DL)

Elton John & Leon Russell
Live at the Beacon Theater, NY
October 19, 2010
Pro-shot DVD

Source: 
The Fuse Satellite Broadcast

Lineage:
Broadcast>VHS SP Mode>Pinacle Studio>DVD

Chapters: every 10 minutes.

Video Attributes:
System - NTSC
Video Bitrate - 6338kbps
Video Frames/Second - 38.295

Audio Attributes:
AC3
Audio Bitrate - 256kbps

Approximate Length: 158 minutes

01 Intro (Elton)
Leon Russell
02 Tight Rope 
03 Prince Of Peace/Out In The Woods 
04 A Song For You 
05 Delta Lady 
06 Roll in My Sweet Baby's Arms 
07 Stranger In A Strange Land 

Elton John & Leon Russell 
08 If It Wasn't For Bad 
09 Eight Hundred Dollar Shoes 
10 Hey Ahab 
11 Gone To Shiloh 
12 Jimmie Rodgers' Dream 
13 There's No Tomorrow 
14 Monkey Suit 
15 The Best Part Of The Day 
16 A Dream Come True 
17 When Love Is Dying 
18 I Should Have Sent Roses 
19 Band Intro 
20 Hearts Have Turned To Stone 
21 Never Too Old (To Hold Somebody) 
22 In The Hands Of Angels 

Elton John 
23 Burn Down The Mission 
24 Levon 
25 Tiny Dancer 
26 Ballad Of A Well-Known Gun 
27 I Guess That's Why They Call It The Blues 
28 Your Song 
29 Take Me to the Pilot 
30 Sad Songs (Say So Much) 
31 The Bitch Is Back 

Elton John & Leon Russell 

32 Hey Ahab (commercial cuts beginning off)







Led Zeppelin - 1977-1980 - Film Noir Volume 2 (2xDVDfull pro-shot)

(2xDVDfull pro-shot)

Led Zeppelin - Film Noir Volume Two (1977-1980)
2 Discs
Hercules Label 2006
230 Minutes

Video
ID : 224 (0xE0)
Format : MPEG Video
Format version : Version 2
Format profile : Main@Main
Format settings, BVOP : Yes
Format settings, Matrix : Default
Format settings, GOP : M=3, N=15
Format settings, picture st : Frame
Duration : 26 min 35 s
Bit rate mode : Variable
Bit rate : 4 830 kb/s
Maximum bit rate : 5 000 kb/s
Width : 720 pixels
Height : 480 pixels
Display aspect ratio : 4:3
Frame rate : 29.970 (30000/1001) FPS
Standard : NTSC
Color space : YUV
Chroma subsampling : 4:2:0
Bit depth : 8 bits
Scan type : Interlaced
Scan order : Bottom Field First
Compression mode : Lossy
Bits/(Pixel*Frame) : 0.466
Time code of first frame : 00:00:00:00
Time code source : Group of pictures header
GOP, Open/Closed : Closed
Stream size : 918 MiB (90%)
Color primaries : BT.601 NTSC
Transfer characteristics : BT.601
Matrix coefficients : BT.601

Audio
ID : 189 (0xBD)-128 (0x80)
Format : AC-3
Format/Info : Audio Coding 3
Format settings, Endianness : Big
Muxing mode : DVD-Video
Duration : 26 min 34 s
Bit rate mode : Constant
Bit rate : 448 kb/s
Channel(s) : 2 channels
Channel positions : Front: L R
Sampling rate : 48.0 kHz
Frame rate : 31.250 FPS (1536 spf)
Bit depth : 16 bits
Compression mode : Lossy
Stream size : 85.2 MiB (8%)
Service kind : Complete Main

DISC 1:
01. Chicago Stadium, Chicago, Illinois U.S.A April 9, 1977
02. Chicago Stadium, Chicago, Illinois U.S.A April 10, 1977
03. Jefferson Memorial Coliseum, Birmingham, Alabama U.S.A May 18, 1977
04. L.S.H. Assembly Hall, Baton Rouge, Louisiana U.S.A May 19, 1977
05. Madison Square Garden, New York, New York U.S.A June 11 & 14, 1977

DISC 2:
01. Madison Square Garden, New York, New York U.S.A June 10, 1977
02. Madison Square Garden, New York, New York U.S.A June 1977
03. Madison Square Garden, New York, New York U.S.A June 14, 1977
04. The Forum, Inglewood, California U.S.A June 23, 1977
05. The Forum, Inglewood, California U.S.A June 26, 1977
06. The Forum, Inglewood, California U.S.A June 22 & 26, 1977
07. Oakland-Alameda County Coliseum, Oakland, California U.S.A July 23, 1977
08. Knebworth Festival, Stevenage, England August 11, 1979
09. Sporthalle, Cologne, Germany June 18, 1980
10. Ahoyhallen, Rotterdam, Netherland June 21, 1980
11. Olympiahalle, Munich, Germany July 5, 1980

Led Zeppelin - Film Noir - Bonsu Disc - Volume 3 (DVDfull pro-shot)


(DVDfull pro-shot)

Led Zeppelin - Film Noir (Bonus Disc)
1 Discs
Hercules Label 2006
130 Minutes

ID : 224 (0xE0)
Format : MPEG Video
Format version : Version 2
Bit rate mode : Variable
Width : 720 pixels
Height : 480 pixels
Display aspect ratio : 4:3
Frame rate : 29.970 (29970/1000) FPS
Standard : NTSC
Compression mode : Lossy

Audio
Format : AC-3
Format/Info : Audio Coding 3
Channel(s) : 2 channels
Sampling rate : 48.0 kHz
Compression mode : Lossy

01. Drake Hotel (Zep & The Who) 1969
02. Communication Breakdown (Japanese Tv) 1969
03. Whole Lotta Love (Beat Club) 1969
04. Whole Lotta Love (Image Promo Film) 1969
05. The Julie Felix Show (Page Performance) April 26, 1970
06. Iceland (Plant Interview) June 22, 1970
07. Nationwide (Bonham & Plant Interview) September 16, 1970
08. New York (Press Conference Plant & Page) September 18, 1970
09. Montreux (Backstage) August 7, 1971
10. Australia (Document Film) 1972
11. Starship News Footage July 27, 1973
12. 'The Song Remains The Same' Trailer
13. 'The Song Remains The Same' Outtakes
14. Nbc News (Plant Interview) August 31, 1973
15. Old Grey Whistle Test (Plant Interview) January 12, 1975
16. Nbc News (Grant Interview & Newsreel) February 1975
17. Achilles Last Stand (Old Grey Whistle Test)
18. Old Grey Whistle Test (Plant & Grant Interview) November 2, 1976
19. Plaza Hotel, New York June 1977
20. All Right Now (Bonham Interview) March 4, 1980
21. Cbs News (Bonham Death Report) September 25, 1980
22. Los Angeles News (Bonham Death Report) September 26, 1980

The Rolling Stones - 1981-12-18 - Hampton, VA (2xDVDfull pro-shot)

(2xDVDfull pro-shot)

The Rolling Stones
Hampton '81
Hampton Road Colliseum, VA,
December 18th, 1981
Tattoo You Tour
(Keiths Birthday)

lineage
PPV Broadcast > ? > Jointrip Motion Pictures > Purchased at Record Show > Copy to HD > Traders Little Helper for MD5 > Gspot for stats

Video System: NTSC 29.97
Video Bitrate: 6353
Video Format: 4:3 - 720X480
Audio Codec: LPCM

Disc One
01 - Take The "A" Train
02 - Under My Thumb
03 - When The Whip Comes Down
04 - Let's Spend The Night Together
05 - Shattered
06 - Neighbors
07 - Black Limousine
08 - Just My Imagination
09 - Tenty Flight Rock
10 - Going To a Go-Go
11 - Let Me Go
12 - Time Is On My Side
13 - Beast of Burden
14 - Waiting on a Friend
15 - Let It Bleed

Disc Two
01 - Mick
02 - You Can't Always Get What You Want
03 - Band Intros
04 - Happy Birthday Keith
05 - Little T&A
06 - Tumbling Dice
07 - She's So Cold
08 - Hang Fire
09 - Miss You
10 - Honky Tonk Woman
11 - Brown Sugar
12 - Start Me Up
13 - Jumpin' Jack Flash
14 - Satisfaction
15 - Star-Spangled Banner
16 - Hail Hail Rock N' Roll

Running Time: 190 minutes approx.

notes
The noteriety of this show is that when the band began the encore, "Satisfaction", thousands of balloons were released and a fan, taking advantage of the confusion, ran past security and onto the stage, directly at Keith Richards, who proved that they don't call guitars "Axes" for nothing! The best part is that Keith nails the guy with a Telecaster, then puts it back on and keeps playing!

Europe - 1990-02-26 - Viña Del Mar, Chile (DVDfull pro-shot)


(DVDfull pro-shot)

Venue: Quinta Vergara

Video attributes:
Video compression mode: MPEG2
TV system: NTSC (525/60)
Aspect ratio: 4:3
Source picture resolution: 720x480
Frame Rate: 29.97fps
Bitrate: 5964Kbps

Audio attributes:
Audio coding mode: Dolby AC-3 / LPCM
Sampling rate: 48kHz
Audio application mode: Not specified
Number of audio channels: 2
Bitrate: 256Kbps
Number of audio streams: 1

lineage
PRO / TVN TV / Camarad VHS Capture Master / SA / DVD-R / DVD Decrypter / VOB Files / You

01 - Introduction
02 - Ready Or Not
03 - Danger On The Track
04 - Let The Good Times Rock
05 - Seventh Sign
06 - More Than Meet The Eye
07 - Carrie
08 - Open Your Heart
09 - Kee Marcello Guitar Solo
10 - Heart Of Stone
11 - Superstitious
12 - Jam
13 - Bad Blood
14 - Cherokee
15 - Rock The Night
16 - The Final Countdown
17 - A Hard Days Night
18 - Hound Dog

The only real decent recording I know. No Menu. All others came from this source, some with nice menus. Europe Kick mayor Ass two nights in a row at Viña del Mar in 1990.



Soundgarden - 1990-04-16 - Düsseldorf, DE (ts pro-shot)


(ts pro-shot)

Soundgarden - 1990-04-16, Philipshalle, Düsseldorf, Germany - HDTV 720P (2017 Re-Broadcast) 

July 10th 2017 Wdr Re-Broadcast 

Lineage: Vu+Solo2 DVB-S2 satellite receiver -> HDD -> Videoredo TV Suite 4 -> .ts file format 

Genre: Grunge | Alternative Metal 
Quality: HDTV | 720p 
Format: TS | 6264kbps 
Length: 00:40:00 | 2.05Gb 
Video: H.264 | 1280x720 | 16:9 (4:3) | 50.000fps 
Audio: AC3 | 448kbps | 48kHz | 2 channels: L R 
Language: English 

Chris Cornell 
Kim Thayil 
Jason Everman 
Matt Cameron

01 - Flower 
02 - Hands All Over 
03 - Gun 
04 - Loud Love 
05 - Get On The Snake 
06 - Full On Kevin´s Mom 
07 - I Awake 
08 - Beyond The Wheel 

Duration: 40 Minutes





martedì 30 ottobre 2018

Santana - 1992-06-26 - Linz, AT (SBD/FLAC)

(Soundboard FLAC)

Stadtplaz

Lineage
-Recording
Sbd -> DAT? -> cassette (master?/low generation) -> DAT
-Mastering
DAT transferred on December 13, 2008
Sony PCM-R500 (extremely low error rates) -> RME Fireface -> Sony VGN-SZ330P Laptop -> Cubase 3 -> Adobe Audition 3, minor front and tail edits etc.,
UV22 dither -> Trader's Little Helper (FLAC=8)

Carlos Santana (g/perc/vo),
Walfredo De Los Reyes (ds),
Alphonso Johnson (b),
Alex Ligertwood (g/vo),
Karl Perazzo (perc/vo),
Raul Rekow (perc/vo),
Chester Thompson (kbd/vo)

D1 (8 Tracks) (52:57)
01 - Angels All Around Us/Spirits Dancing In The Flesh (incl. Milagro tease -
02 - Somewhere In Heaven ->
03 - Batuka ->
04 - No One To Depend On
05 - Life Is For Living
06 - Saja/Right On ->
07 - Black Magic Woman/Gypsy Queen ->
08 - Oye//Como Va

D2 (6 Tracks) (46:41)
01 - Samba Pa Ti ->
02 - Savor
03 - Agua Que Va Caer
04 - Wings Of Grace ->
05 - Peace On Earth...Mother Earth...Third Stone From The Sun ->
06 - Make Somebody Happy/

Cuts - D1: 50:56 - D2: 46:40

Notes:
Santana in Austria. Another nice, but incomplete, recording with the bass player of the month Alphonso Johnson. Any set list corrections/additions are always appreciated. Another Thank You to Herman, and the folks at Santanamigos for lots of extremely useful information.

U2 - 1998-02-11 - Santiago, Chile (SBD/FLAC) "En El Fin Del Mundo"


(Soundboard FLAC)

"En El Fin Del Mundo"

4th Leg of PopMart tour

Lineage:
Silver CDs > EAC > FLAC Frontend Level 8

CD 1

01. Intro
02. Pop Muzik
03. MOFO
04. I Will Follow
05. Gone
06. Even Better Than The Real Thing
07. Last Night On Earth
08. Until The End Of The World
09. New Year's Day
10. Pride (In The Name Of Love)
11. I Still Haven't Found What I'm Looking For
12. Bad - All I Want Is You
13. Staring At The Sun
14. Sunday Bloody Sunday
15. Bullet The Blue Sky 

 
CD 2
01. Please
02. Where The Streets Have No Name (fades out)
03. Discotheque - Stayin' Alive
04. If You Wear That Velvet Dress
05. With Or Without You
06. Hold Me Thrill Me Kiss Me Kill Me
07. Mysterious Ways
08. One
09. Mothers Of The Disappeared - El Pueblo Vencera

U2 - 2015-12-06 - Paris, FR (SBD/FLAC)



(Soundboard FLAC)

U2
2015-12-06
Paris, France
AccorHotels Arena

lineage
TS File > FFMBC > Nuendo > Minnetonka Dolby-E Decoder > Left & Right Channel > 4.0db boost > 44.1KHz 16bit > CD WAV > Foobar 2000 > Flac

ts demuxing/dolby e decoding > wav mix by chrisedge

01. Power To The People
02. The Miracle (Of Joey Ramone)
03. Out Of Control
04. Vertigo
05. I Will Follow
06. Iris (Hold Me Close)
07. Cedarwood Road
08. Song For Someone
09. Sunday Bloody Sunday
10. Raised By Wolves
11. Until The End Of The World
12. Invisible
13. Even Better Than The Real Thing
14. Mysterious Ways
15. Elevation
16. Ordinary Love
17. Every Breaking Wave
18. October
19. Bullet The Blue Sky
20. Zooropa
21. Where The Streets Have No Name
22. Pride (In The Name Of Love)
23. With Or Without You
24. Encore / Stephen Hawking Video
25. City Of Blinding Lights / Ne me quitte pas
26. Beautiful Day
27. Mother and Child Reunion
28. One
29. Bad
30. People Have The Power (With Patti Smith)

Yes - 2001-09-03 - Danbury, CT (SBD/SHN)




(Soundboard SHN)

Charles Ives Center For The Arts

Disc 1:
01. Give Love Each Day
02. Close To The Edge
03. Long Distance Runaround
04. Don't Go
05. In The Presence Of
06. The Gates Of Delirium

Steve Howe Solo:
07. Winter
08. Clap

Disc 2:
01. Perpetual Change
02. Starship Trooper
03. And You And I
04. Ritual

Disc 3:
01. I've Seen All Good People
02. Roundabout

Extras - venue/date unknown:
03. Interview
04. Introduction
05. Siberian Khatru
06. Sound Chaser
07. I've Seen All Good People

Notes:
3 years on from the YesSymphonic Tour, here we have unearthed an excellent stage mic recording of the Danbury 2001 show, a different source than the lower quality audience version that's circulating in the Yes trading scene. This rates as one of the best sounding shows from 2001, at least as good as the best audience recordings from the tour. No other source information is available. All credit goes to windowkbm, who traded for this wonderful recording and encoded it to SHN. After verifying the MD5 signuatures, I converted it to FLAC (SHN->WAV[mkwACT]->FLAC[Flac Frontend])

Aerosmith - 1980-01-25 - Largo, MD (DVDfull pro-shot)

(DVDfull pro-shot)

Capital Centre

Steven Tyler
Jimmy Crespo
Brad Whitford
Joey Kramer
Tom Hamilton

Lineage:
Got it on TTD some years ago
DVD-R > DVD Decrypter > TLH

GSpot:
Video MPEG2, NTSC, 704 x 480, 4:3, 29.970 Frames/s
Audio AC3, 48000Hz, 256 kb/s, Stereo

01 - Intro
02 - Back In The Saddle
03 - Mama Kin
04 - I Wanna Know Why
05 - Big Ten Inch Record
06 - Three Mile Smile
07 - Reefer Head Woman
08 - Bone To Bone (Coney Island White Fish Boy)
09 - Walk This Way
10 - Dream On
11 - Rats In The Cellar
12 - Get The Lead Out
13 - Remember (Walking In The Sand)
14 - Lord Of The Thighs
15 - Same Old Song And Dance
16 - Milk Cow Blues
17 - Toys In The Attic
18 - Come Together
19 - Train Kept a Rollin'

Notes:
Nice PRO recording, no menu, chapters every 5 minutes , total running time 92 minutes







Deep Purple - 1968-10-18 - Inglewood, CA (DVDfull aud-shot) + bonus

(DVDfull aud-shot)

CAMRip (68), VHSRip (69, 70)
DVD video
MPEG2
MP2
NTSC 4:3 (720x480), 29.97 fps, 4427/4282/4544 kbps
MP2, 48 kHz, 2 channels, 256 kbps

Inglewood '68
01. Hush
02. Kentucky Woman
03. Mandrake Root (break)
04. Mandrake Root (reprise)
05. Help
06. Wring That Neck
07. River Deep, Mountain High
08. Hey Joe
00:52:54

Bilzen '69
01. Wring That Neck
02. Drum solo
03. Mandrake Root
00:24:19

South Bank '70
01. Mandrake Root
00:13:45

















Evanescence - 2007-05-28 - Landgraaf, NL (DVDfull pro-shot)


(DVDfull pro-shot) 

Video: PAL MPEG2, 25 fps, 704x576 (4:3 letterboxed), 5040 kbps avg.
Audio: Stereo AC3 48/256

DVD with menu and chapters
Lineage: TV (DVB-C) => DVD-RAM => HDD (TMPEnc 3.0 Express) => TMPEG DVD Author 1.6

01 - Weight Of The World (5:11)
02 - Sweet Sacrifice (3:18)
03 - Going Under (3:43)
04 - The Only One (4:49)
05 - Cloud Nine (5:24)
06 - Lithium (3:59)
07 - Haunted (3:40)
08 - Call Me When You're Sober (3:42)
09 - Imaginary (4:21)
10 - Bring Me To Life (3:41)
11 - Whisper (5:33)
12 - All That I'm Living For (3:50)
13 - Lacrymosa (4:50)
14 - My Immortal (4:45)
15 - Your Star (4:35)

Playlist length: 
1  hour 5 minutes 21 seconds









In Performance At The White House - 2012-05-21 - Washington DC (DVDfull pro-shot)

(DVDfull pro-shot)

Burt Bacharach & Hal David:
The Library of Congress Gershwin Prize For Popular Song -
In Performance At The White House
Washington D.C.
The White House - East Room
Taped: May 9, 2012
Aired: May 21, 2012

http://www.pbs.org/inperformanceatthewhitehouse/
A star-studded tribute to the songwriting team who penned such classic tunes as "Raindrops Keep Fallin' On My Head," "What The World Needs Now is Love," "Walk on By" and "Alfie." Composer Bacharach and lyricist David's extraordinary collaboration has produced numerous hits and enjoyed a resurgence in popularity, with songs featured in the "Austin Powers" films and an episode of "Glee."

Lineage: HD 1080i Digital Broadcast > Component Cables / S/PDIF Cable > Hauppauge HD-PVR > h.264 .m2ts file @ 13.5mbps/384kbps 6-Channel AC-3 Audio (No encoding of audio) > TMPGEnc Authoring Works 4 (Menu, Chapters, Author DVD) > DVD Files

01. Opening
02. I'll Never Fall In Love Again - Sheryl Crow & Lyle Lovett
03. Make It Easy On Yourself - Stevie Wonder & Arturo Sandoval
04. The Look Of Love - Diana Krall
05. Anyone Who Had A Heart - Shelea & Arturo Sandoval
06. What's New Pussycat - Mike Myers
07. A House Is Not A Home - Rumer
08. (There's) Always Something There To Remind Me - Lyle Lovett
09. Walk On By - Sheryl Crow
10. (They Long To Be) Close To You - Michael Feinstein
11. Alfie - Stevie Wonder
12. President Barack Obama
13. Eunice David
14. Burt Bacharach
15. What The World Needs Now Is Love - Burt Bacharach with All Artists
16. Credits

House Band:
Robert Mounsey (Music Director, Piano and Keyboards)
David Mann (Saxophone)
Anthony Kadleck (Trumpet)
Henry Hey (Keyboards)
David Finck (Bass)
Ben Butler (Guitar)'
Bashiri Johnson (Percussion)
Shawn Pelton (Drums)
Fonzi Thornton (Background Vocals)
Vaneese Thomas (Background Vocals)
Jill DellíAbate (Background Vocals)

Format : MPEG-PS
File size : 2.54 GiB
Duration : 56mn 36s
Overall bit rate mode : Variable
Overall bit rate : 6 423 Kbps

Video
ID : 224 (0xE0)
Format : MPEG Video
Format version : Version 2
Format profile : Main@Main
Format settings, BVOP : Yes
Format settings, Matrix : Custom
Format settings, GOP : M=3, N=18
Duration : 56mn 36s
Bit rate mode : Variable
Bit rate : 5 911 Kbps
Maximum bit rate : 8 000 Kbps
Width : 720 pixels
Height : 480 pixels
Display aspect ratio : 16:9
Frame rate : 29.970 fps
Standard : NTSC
Color space : YUV
Chroma subsampling : 4:2:0
Bit depth : 8 bits
Scan type : Interlaced
Scan order : Top Field First
Compression mode : Lossy
Bits/(Pixel*Frame) : 0.571
Stream size : 2.34 GiB (92%)
Color primaries : BT.470-2 System B, BT.470-2 System G
Transfer characteristics : BT.470-2 System B, BT.470-2 System G
Matrix coefficients : BT.470-2 System B, BT.470-2 System G

Audio
ID : 189 (0xBD)-128 (0x80)
Format : AC-3
Format/Info : Audio Coding 3
Mode extension : CM (complete main)
Muxing mode : DVD-Video
Duration : 56mn 36s
Bit rate mode : Constant
Bit rate : 384 Kbps
Channel(s) : 6 channels
Channel positions : Front: L C R, Side: L R, LFE
Sampling rate : 48.0 KHz
Bit depth : 16 bits
Compression mode : Lossy
Stream size : 155 MiB (6%)



lunedì 29 ottobre 2018

R.E.M. - Let Me in the Monster Tour (DVDfull pro-shot)

(DVDfull pro-shot)

PAL DVD

Lineage:
VHS Master - DVD Recorder Phillips M2 Mode - Menu & Chapter with ULEAD MF4

01. Rough Cut : Great Rockumentary recorded during the Monster Tour 1995 (French Subtitles)  -  French TV
02. MTV Live Dallas 1995/09/19  Took Your Name / Kenneth / Crush with Eyeliner  -  TV
03. MTV VMA 1995/09/07  Wake Up Bomb ... Hosted by Natalie Merchant (God Bless Her...She's Wonderful)
04. MTV News Summer 1995 ... footage from European Festival
05. M6 French TV ... short report on REM



Manfred Mann's Earthband - 1977-02-25 - Hollywood, CA (AUD/FLAC) by REQUEST




(Audience FLAC)

Manfred Mann’s Earth Band 
Live at the Roxy Theatre 
Hollywood, California 
Friday February 25, 1977 9:00 PM Early Show 

Audience Recording by Mike Martin using a Sony T-C55 mono cassette deck with auto record level and built in microphone 
Transfer of Master 
Nakamichi CR3A > Audigy 4 Pro @ 24/44.1 > editing with NERO > Convert to 16 Bits with Audacity > CD Wav > Flac (Level 8) 

01. Waiter, There's A Yawn In My Ear 
02. On The Road To Babylon > 
03. Spirits In The Night 
04. Davy's On The Road Again 
05. Love In The Sun 
06. Father Of Day 
07. Captain Bobby Stout 
08. Blinded By The Light 
09. Unknown Song Title 
10. The Mighty Quinn 

Running Time: 71 minutes 9 seconds