Tuesday, May 30, 2017

L.A. Guns - 1988-05-09 - Philadelphia, PA (DVDfull pro-shot)

(DVDfull pro-shot)

Show or Bootleg Title:
Live In Philadelphia 88

Show Venue:
Philadelphia Spectrum

Source:
DVD - Pro Shot

Video Quality/Production Info:
Video/ Audio: 8.0

Audio/Video Specs:
Format : MPEG-PS
Overall bit rate : 4 258 Kbps

Video
ID : 224 (0xE0)
Format : MPEG Video
Format version : Version 2
Format profile : Main@Main
Format settings, BVOP : No
Format settings, Matrix : Default
Format settings, GOP : M=1, N=12

Bit rate mode : Variable
Bit rate : 3 917 Kbps
Nominal bit rate : 6 250 Kbps
Width : 720 pixels
Height : 480 pixels
Display aspect ratio : 4:3
Frame rate : 29.970 fps
Standard : NTSC
Color space : YUV
Chroma subsampling : 4:2:0
Bit depth : 8 bits
Scan type : Interlaced
Scan order : Top Field First
Bits/(Pixel*Frame) : 0.378
Stream size : 942 MiB (92%)

Audio
ID : 128 (0x80)
Format : AC-3
Format/Info : Audio Coding 3
Mode extension : CM (complete main)
Bit rate mode : Constant
Bit rate : 256 Kbps
Channel(s) : 2 channels
Channel positions : Front: L R
Sampling rate : 48.0 KHz
Bit depth : 16 bits
Video delay : -13ms
Stream size : 61.6 MiB (6%)

Text
ID : 32 (0x20)
Format : RLE
Format/Info : Run-length encoding

Format:
NTSC

01. No Mercy
02. Hollywood Tease
03. Shoot For Thrills
04. One Way Ticket
05. Sex Action
06. The Bitch Is Back
07. Down In The City
08. Electric Gypsy
09. One More Reason
10. Nothing To Lose





No comments:

Post a Comment