mercoledì 13 giugno 2018

The Rolling Stones - 1982-06-26 - London, UK (DVDfull pro-shot)


(DVDfull pro-shot) 

The Rolling Stones
1982-06-26
Wembley
London
DVD5
NTSC - 5.1

Rolling Stones
"Wembley Stadium 1982 Plus More"
Wembley Stadium; London 26th June 1982

mediainfo
General
Complete name : J:\1\The Rolling Stones - 1982 - 06 - 26 - London [DVD]\VIDEO_TS\VTS_01_1.VOB
Format : MPEG-PS
File size : 1 024 MiB
Duration : 25mn 19s
Overall bit rate : 5 653 Kbps

Video
ID : 224 (0xE0)
Format : MPEG Video
Format version : Version 2
Format profile : Main@Main
Format settings, BVOP : Yes
Format settings, Matrix : Custom
Duration : 25mn 19s
Bit rate : 4 900 Kbps
Width : 720 pixels
Height : 480 pixels
Display aspect ratio : 4:3
Frame rate : 29.970 fps
Standard : NTSC
Color space : YUV
Chroma subsampling : 4:2:0
Bit depth : 8 bits
Scan type : Interlaced
Scan order : Bottom Field First
Compression mode : Lossy
Bits/(Pixel*Frame) : 0.473
Stream size : 888 MiB (87%)

Audio
ID : 189 (0xBD)-128 (0x80)
Format : AC-3
Format/Info : Audio Coding 3
Mode extension : CM (complete main)
Muxing mode : DVD-Video
Duration : 25mn 19s
Bit rate mode : Constant
Bit rate : 640 Kbps
Channel(s) : 6 channels
Channel positions : Front: L C R, Side: L R, LFE
Sampling rate : 48.0 KHz
Bit depth : 16 bits
Compression mode : Lossy
Delay relative to video : -78ms
Stream size : 116 MiB (11%)

Source : PRO
Region : PAL
Length : 120
Size : 3.44GB 
Resolution : 720 x 480

Live Wembley 1982
1. Under My Thumb
2. Tumbling Dice
3. She's So Cold
4. Hang Fire
5. Miss You
6. Honky Tonk Women
7. Brown Sugar
8. Jumpin Jack Flash
9. Start Me Up
10. Satisfaction

German TV Special 82
11. Under My Thumb
12. Mick Jagger Interview
13. Let's Spend The Night Together
14. Bill Wyman Interview
15. Mick Jagger Interview

BBC 1982
16. Intro
17. Mick Jagger Interview
18. Under My Thumb
19. Mick Jagger Interview
20. Bill Wyman Interview
21. Mick Jagger Interview
22. Let's Spend The Night Together

MENU SCREENED & CHAPTERED [Screen Caps Attached]





Nessun commento:

Posta un commento