venerdì 12 ottobre 2018

Rod Stewart - 1985-01-13/16 - Rio de Janeiro, BR (DVDfull pro-shot)

(DVDfull pro-shot)

Rod Stewart 
Rock in Rio '85 
January 13 & 16, 1985 
Cidade do Rock 
Rio de Janeiro 
Brazil 

DVD NTSC 

TV Special from both nights 

Lineage: DVD obtained in trade -> PC 

General 
Format : MPEG-PS 
File size : 1 024 MiB 
Overall bit rate mode : Variable 
Overall bit rate : 7 583 Kbps 

Video 
ID : 224 (0xE0) 
Format : MPEG Video 
Format version : Version 2 
Format profile : Main@Main 
Format settings, BVOP : Yes 
Format settings, Matrix : Custom 
Format settings, GOP : M=3, N=15 
Format settings, picture structure : Frame 
Duration : 76mn 05s 
Bit rate mode : Variable 
Bit rate : 7 208 Kbps 
Maximum bit rate : 8 000 Kbps 
Width : 720 pixels 
Height : 480 pixels 
Display aspect ratio : 4:3 
Frame rate : 29.970 fps 
Standard : NTSC 
Color space : YUV 
Chroma subsampling : 4:2:0 
Bit depth : 8 bits 
Scan type : Interlaced 
Scan order : Top Field First 
Compression mode : Lossy 
Bits/(Pixel*Frame) : 0.696 
Time code source : Group of pictures header 
GOP, Open/Closed : Open 
Stream size : 973 MiB (95%) 
Color primaries : BT.601 NTSC 
Transfer characteristics : BT.601 
Matrix coefficients : BT.601 

Audio 
ID : 192 (0xC0) 
Format : MPEG Audio 
Format version : Version 1 
Format profile : Layer 2 
Duration : 76mn 05s 
Bit rate mode : Constant 
Bit rate : 224 Kbps 
Channel(s) : 2 channels 
Sampling rate : 48.0 KHz 
Compression mode : Lossy 
Delay relative to video : -600ms 
Stream size : 30.2 MiB (3%) 

01. Dance with me 
02. Hot legs 
03. Tonight I'm yours 
04. You're in my heart 
05. Babe Jane 
06. Jam 
07. Infatuation 
08. Tonight´s the night 
09. Sittin' on the dock of the bay 
10. Da' ya' thing I'm sexy? 
11. Young turks 
12. Passion 
13. Maggie May 
14. Sailing 
15. Sweet little rock 'n roller

Nessun commento:

Posta un commento