Saturday, December 17, 2016

Bon Jovi - 1990-01-28 - Rio de Janeiro, BR (DVDfull pro-shot)

(DVDfull pro-shot)

Artist:
Bon Jovi

Show or Bootleg Title:
Rio de Janeiro, Brazil - 1990.01.18

Show Venue:
Hollywood Rock

Source:
DVD - Pro Shot

Video Quality/Production Info:
Audio : A, Video : A

Audio/Video Specs:
General
Complete name : D:\Bon Jovi - Rio de Janeiro, Brazil - 1990.01.28 - Pro Shot\VIDEO_TS\VIDEO_TS.VOB
Format : MPEG-PS
File size : 283 MiB
Duration : 5mn 0s
Overall bit rate : 7 916 Kbps

Video
ID : 224 (0xE0)
Format : MPEG Video
Format version : Version 2
Format profile : Main@Main
Format settings, BVOP : Yes
Format settings, Matrix : Custom
Format settings, GOP : M=3, N=16
Duration : 5mn 0s
Bit rate : 6 232 Kbps
Width : 720 pixels
Height : 480 pixels
Display aspect ratio : 4:3
Frame rate : 29.970 fps
Standard : NTSC
Color space : YUV
Chroma subsampling : 4:2:0
Bit depth : 8 bits
Scan type : Progressive
Compression mode : Lossy
Bits/(Pixel*Frame) : 0.602
Time code of first frame : 00:00:00:00
Time code source : Group of pictures header
Stream size : 223 MiB (79%)
Color primaries : BT.601 PAL
Transfer characteristics : BT.470 System B, BT.470 System G
Matrix coefficients : FCC 73.682

Audio
ID : 189 (0xBD)-160 (0xA0)
Format : PCM
Format settings, Endianness : Big
Format settings, Sign : Signed
Muxing mode : DVD-Video
Duration : 5mn 0s
Bit rate mode : Constant
Bit rate : 1 536 Kbps
Channel(s) : 2 channels
Sampling rate : 48.0 KHz
Bit depth : 16 bits
Stream size : 54.9 MiB (19%)

Text
ID : 189 (0xBD)-32 (0x20)
Format : RLE
Format/Info : Run-length encoding
Muxing mode : DVD-Video

Format:
NTSC

01 - Lay Your Hands On Me
02 - I'd Die For You
03 - Wild In The Streets
04 - You Give Love A Bad Name
05 - Fever
06 - Born To Be My Baby
07 - Let It Rock
08 - I'll Be There For You
09 - Blood On Blood
10 - Livin'On A Prayer
11 - Tokyo Road
12 - Runaway
13 - Never Say Goodbye (Acoustic)
14 - Wanted Dead Or Alive
15 - Bad Medicine / Shout





No comments:

Post a Comment