Monday, March 20, 2017

Bon Jovi - 2013-09-20 - Rio de Janeiro, BR (DVDfull pro-shot)

(DVDfull pro-shot)

Rock In Rio

Lineage: 
cable TV Multishow HD > Philips DVD recorder with Hard Disk > TDK DVD-R > dvddecrypter (0 errors) > my Hard Disk

info (just the first vob):
eneral
Complete name : D:\VIDEO_TS\VTS_01_1.VOB
Format : MPEG-PS
File size : 1 024 MiB
Duration : 30mn 0s
Overall bit rate : 4 769 Kbps

Video
ID : 224 (0xE0)
Format : MPEG Video
Format version : Version 2
Format profile : Main@Main
Format settings, BVOP : Yes
Format settings, Matrix : Custom
Format settings, GOP : M=3, N=15
Duration : 30mn 0s
Bit rate : 4 380 Kbps
Width : 720 pixels
Height : 480 pixels
Display aspect ratio : 4:3
Frame rate : 29.970 fps
Standard : NTSC
Color space : YUV
Chroma subsampling : 4:2:0
Bit depth : 8 bits
Scan type : Interlaced
Scan order : Top Field First
Compression mode : Lossy
Bits/(Pixel*Frame) : 0.423
Time code of first frame : 09:45:14;19
Time code source : Group of pictures header
Stream size : 949 MiB (93%)

Audio
ID : 189 (0xBD)-128 (0x80)
Format : AC-3
Format/Info : Audio Coding 3
Mode extension : CM (complete main)
Format settings, Endianness : Big
Muxing mode : DVD-Video
Duration : 30mn 0s
Bit rate mode : Constant
Bit rate : 256 Kbps
Channel(s) : 2 channels
Channel positions : Front: L R
Sampling rate : 48.0 KHz
Bit depth : 16 bits
Compression mode : Lossy
Delay relative to video : -469ms
Stream size : 55.0 MiB (5%)

01 - That's What the Water Made Me
02 - You Give Love a Bad Name
03 - Raise Your Hands
04 - Runaway
05 - Lost Highway
06 - Whole Lot of Leavin'
07 - It's My Life
08 - Because We Can
09 - What About Now
10 - We Got It Goin' On
11 - Keep the Faith
12 - (You Want to) Make a Memory
13 - Captain Crash & the Beauty Queen From Mars
14 - We Weren't Born to Follow
15 - Who Says You Can't Go Home
16 - I'll Sleep When I'm Dead ('Start Me Up' by The Rolling Stones snippet)
17 - Bad Medicine
18 - Shout (The Isley Brothers cover)

Encore:
19 - Wanted Dead or Alive
20 - Have a Nice Day
21 - Livin' on a Prayer

Encore 2:
22 - Always

the cable tv is in HD, but my dvd recorder does not record in HD. The dvd has a standard menu, a chapter every 5 minutes

Taped by Geophagus



No comments:

Post a Comment