Wednesday, October 4, 2017

Bruce Springsteen - 2013-09-21 - Rio de Janeiro, BR (2xDVDfull pro-shot)

(2xDVDfull pro-shot)

Lineage: 
cable TV Multishow HD > Philips DVD recorder with Hard Disk > TDK DVD-R > dvddecrypter (0 errors) > my Hard Disk 

the cable tv is in HD, but my dvd recorder does not record in HD 

the dvds have a standard menu, a chapter every 5 minutes 

and remember: THE MASTERS WILL BE THE LAST BAND OF THE LAST DAY OF THE FESTIVAL 

General 
Complete name : D:\VIDEO_TS\VTS_01_1.VOB 
Format : MPEG-PS 
File size : 1 024 MiB 
Duration : 30mn 0s 
Overall bit rate : 4 770 Kbps 

Video 
ID : 224 (0xE0) 
Format : MPEG Video 
Format version : Version 2 
Format profile : Main@Main 
Format settings, BVOP : Yes 
Format settings, Matrix : Custom 
Format settings, GOP : M=3, N=15 
Duration : 30mn 0s 
Bit rate : 4 380 Kbps 
Width : 720 pixels 
Height : 480 pixels 
Display aspect ratio : 4:3 
Frame rate : 29.970 fps 
Standard : NTSC 
Color space : YUV 
Chroma subsampling : 4:2:0 
Bit depth : 8 bits 
Scan type : Interlaced 
Scan order : Top Field First 
Compression mode : Lossy 
Bits/(Pixel*Frame) : 0.423 
Time code of first frame : 09:43:55;15 
Time code source : Group of pictures header 
Stream size : 949 MiB (93%) 

Audio 
ID : 189 (0xBD)-128 (0x80) 
Format : AC-3 
Format/Info : Audio Coding 3 
Mode extension : CM (complete main) 
Format settings, Endianness : Big 
Muxing mode : DVD-Video 
Duration : 30mn 0s 
Bit rate mode : Constant 
Bit rate : 256 Kbps 
Channel(s) : 2 channels 
Channel positions : Front: L R 
Sampling rate : 48.0 KHz 
Bit depth : 16 bits 
Compression mode : Lossy 
Delay relative to video : -495ms 
Stream size : 55.0 MiB (5%)

01 - Sociedade Alternativa (Raul Seixas cover) 
02 - Badlands 
03 - Death to My Hometown 
04 - Spirit in the Night 
05 - Hungry Heart 
06 - Born in the U.S.A. album 
07 - Born in the U.S.A. 
08 - Cover Me 
09 - Darlington County 
10 - Working on the Highway 
11 - Downbound Train 
12 - I'm on Fire 
13 - No Surrender 
14 - Bobby Jean 
15 - I'm Goin' Down 
16 - Glory Days 
17 - Dancing in the Dark (With fans on stage) 
18 - My Hometown 
19 - Shackled and Drawn 
20 - Waitin' on a Sunny Day 
21 - The Rising 
22 - Land of Hope and Dreams (The Impressions's People Get Ready Tag) 
23 - Thunder Road 
24 - Born to Run 
25 - Tenth Avenue Freeze-Out 
26 - Twist and Shout (The Top Notes cover) (La Bamba interlude; With fireworks) 

Encore: 
27 - This Hard Land (solo acoustic) 




No comments:

Post a Comment