sabato 9 giugno 2018

Metallica - 2017-08-12 - San Francisco, CA (DVDfull pro-shot DL)


(DVDfull pro-shot DL)

2017-08-12 - Outside Lands Music & Arts Festival, San Francisco, CA, USA (Deer5001)

Source:
Video - Pro Shot

Audio/Video Specs: 
Video
ID: 224 (0xE0)
Format: MPEG Video
Format version: Version 2
Format profile: Main@Main
Format settings, BVOP : Yes
Format settings, Matrix : Custom
Format settings, GOP: Variable
Bit rate: 5 850 Kbps
Width : 720 pixels
Height: 480 pixels
Display aspect ratio: 16:9
Frame rate: 29.970 (30000/1001) fps
Standard: NTSC
Color space : YUV
Chroma subsampling: 4:2:0
Bit depth : 8 bits
Scan type : Progressive
Compression mode: Lossy
Bits/(Pixel*Frame): 0.565
Time code of first frame: 00:00:00:00
Time code source: Group of pictures header
GOP, Open/Closed: Open
GOP, Open/Closed of first frame : Closed
Stream size : 692 MiB (69%)
Writing library : TMPGEnc Video Mastering Works 5 Version. 5.0.6.38
Color primaries : BT.601 NTSC
Transfer characteristics: BT.601
Matrix coefficients : BT.601

Audio #1
ID: 189 (0xBD)-128 (0x80)
Format: AC-3
Format/Info : Audio Coding 3
Mode extension: CM (complete main)
Format settings, Endianness : Big
Muxing mode : DVD-Video
Bit rate mode : Constant
Bit rate: 448 Kbps
Channel(s): 6 channels
Channel positions : Front: L C R, Side: L R, LFE
Sampling rate : 48.0 KHz
Frame rate: 31.250 fps (1536 spf)
Compression mode: Lossy
Stream size : 53.1 MiB (5%)

Audio #2
ID: 189 (0xBD)-129 (0x81)
Format: AC-3
Format/Info : Audio Coding 3
Mode extension: CM (complete main)
Format settings, Endianness : Big
Muxing mode : DVD-Video
Bit rate mode : Constant
Bit rate: 448 Kbps
Channel(s): 2 channels
Channel positions : Front: L R
Sampling rate : 48.0 KHz
Frame rate: 31.250 fps (1536 spf)
Compression mode: Lossy
Stream size : 53.1 MiB (5%)

Audio #3
ID: 189 (0xBD)-162 (0xA2)
Format: PCM
Format settings, Endianness : Big
Format settings, Sign : Signed
Muxing mode : DVD-Video
Duration: 16mn 34s
Bit rate mode : Constant
Bit rate: 1 536 Kbps
Channel(s): 2 channels
Sampling rate : 48.0 KHz
Bit depth : 16 bits
Stream size : 182 MiB (18%)

01. Hardwired
02. Atlas, Rise!
03. For Whom The Bell Tolls
04. Fuel
05. The Unforgiven
06. Now That We're Dead
07. Moth Into Flame
08. Harvester Of Sorrow
09. Welcome Home (Sanitarium)
10. Kirk & Rob I Disappear Jam
11. Rob Anesthesia Solo
12. Motorbreath
13. Sad But True
14. One
15. Master Of Puppets
16. Fade To Black
17. Seek & Destroy
18. Battery
19. Nothing Else Matters
20. Enter Sandman

Nessun commento:

Posta un commento