sabato 9 giugno 2018

Iron Maiden - 2006-2016 - British TV Compilation (DVDfull pro-shot)

(DVDfull pro-shot)

2006-2016 - Abbey Road Studios, Download + Sonisphere Festivals, England

Source:
DVD - Pro Shot

Audio/Video Specs: 
Video
ID : 224 (0xE0)
Format : MPEG Video
Format version : Version 2
Format profile : Main@Main
Format settings, BVOP : Yes
Format settings, Matrix : Custom
Format settings, GOP : M=3, N=12
Format settings, picture structure : Frame
Bit rate mode : Variable
Bit rate : 4 296 Kbps
Maximum bit rate : 9 263 Kbps
Width : 720 pixels
Height : 576 pixels
Display aspect ratio : 4:3
Frame rate : 25.000 fps
Standard : PAL
Color space : YUV
Chroma subsampling : 4:2:0
Bit depth : 8 bits
Scan type : Interlaced
Scan order : Top Field First
Compression mode : Lossy
Bits/(Pixel*Frame) : 0.414
Time code of first frame : 00:00:00:00
Time code source : Group of pictures header
GOP, Open/Closed : Open
GOP, Open/Closed of first frame : Closed
Stream size : 641 MiB (90%)
Color primaries : BT.601 PAL
Transfer characteristics : BT.470 System B, BT.470 System G
Matrix coefficients : BT.601

Audio
ID : 189 (0xBD)-128 (0x80)
Format : AC-3
Format/Info : Audio Coding 3
Mode extension : CM (complete main)
Format settings, Endianness : Big
Muxing mode : DVD-Video
Bit rate mode : Constant
Bit rate : 384 Kbps
Channel(s) : 2 channels
Channel positions : Front: L R
Sampling rate : 48.0 KHz
Frame rate : 31.250 fps (1536 spf)
Compression mode : Lossy
Delay relative to video : -20ms
Stream size : 57.3 MiB (8%)

2006-12-10 - Abbey Road Studios, London, England, UK
01. Interviews
02. Brighter Than A Thousand Sun
03. Hallowed By Thy Name

2007-06-10 - Download Festival, Donington Park, England
01. Children Of The Damned
02. Interviews
03. The Reincarnation Of Benjamin Bregg
04. Fear Of The Dark

2013-06-15 - Download Festival, Donington Park, England
01. The Trooper
02. Phantom of the Opera
03. Fear of the Dark

2014-07-05 - Sonisphere Festival, Knebworth Park, Knebworth, England
01. Aces High
02. The Trooper
03. Revelations
04. Iron Maiden

2016-06-12 - Download Festival, Donington Park, England
01. Speed Of Light
02. Children Of The Damned
03. The Book Of Souls
04. Blood Brothers

Nessun commento:

Posta un commento