Friday, December 8, 2017

Muse - 2013-09-14 - Rio de Janeiro, BR (DVDfull pro-shot)

(DVDfull pro-shot)

Cidade do Rock
Rock In Rio 2013

Lineage: 
cable TV Multishow HD > Philips DVD recorder with Hard Disk > TDK DVD-R > dvddecrypter (0 errors) > my Hard Disk

info about the first vob:
eneral
Complete name : D:\VIDEO_TS\VTS_01_1.VOB
Format : MPEG-PS
File size : 1 024 MiB
Duration : 30mn 1s
Overall bit rate : 4 769 Kbps

Video
ID : 224 (0xE0)
Format : MPEG Video
Format version : Version 2
Format profile : Main@Main
Format settings, BVOP : Yes
Format settings, Matrix : Custom
Format settings, GOP : M=3, N=15
Duration : 30mn 1s
Bit rate : 4 380 Kbps
Width : 720 pixels
Height : 480 pixels
Display aspect ratio : 4:3
Frame rate : 29.970 fps
Standard : NTSC
Color space : YUV
Chroma subsampling : 4:2:0
Bit depth : 8 bits
Scan type : Interlaced
Scan order : Top Field First
Compression mode : Lossy
Bits/(Pixel*Frame) : 0.423
Time code of first frame : 05:06:29;27
Time code source : Group of pictures header
Stream size : 949 MiB (93%)

Audio
ID : 189 (0xBD)-128 (0x80)
Format : AC-3
Format/Info : Audio Coding 3
Mode extension : CM (complete main)
Format settings, Endianness : Big
Muxing mode : DVD-Video
Duration : 30mn 0s
Bit rate mode : Constant
Bit rate : 256 Kbps
Channel(s) : 2 channels
Channel positions : Front: L R
Sampling rate : 48.0 KHz
Bit depth : 16 bits
Compression mode : Lossy
Delay relative to video : -434ms
Stream size : 55.0 MiB (5%)

01 - Supremacy
02 - Supermassive Black Hole (Guitar Solo intro; Extended outro)
03 - Interlude
04 - Hysteria
05 - Panic Station
06 - Plug In Baby (Extended outro)
07 - Stockholm Syndrome (Rage Against The Machine's Freedom outro)
08 - Monty Jam
09 - Feeling Good (Leslie Bricusse & Anthony Newley cover)
10 - Follow Me
11 - Liquid State
12 - Madness
13 - Time Is Running Out (Misirlou intro)
14 - Unnatural Selection
15 - Agitated (Matt smashed his guitar during the outro)
16 - The 2nd Law: Isolated System (Extended)
17 - Uprising (Extended outro)
18 - Starlight
19 - Survival

Encore:
20 - Knights of Cydonia (Ennio Morricone's Man with a … )

notes by the uploader
the cable tv is in HD, but my dvd recorder does not record in HD the dvd has a standard menu, a chapter every 5 minutes

No comments:

Post a Comment