Wednesday, June 21, 2017

Van Halen - 1995-08-18 - Toronto, ON (DVDfull pro-shot)

(DVDfull pro-shot)

Toronto 1995
Format : MPEG-PS
File size : 1 024 MiB
Duration : 25mn 26s
Overall bit rate mode : Variable
Overall bit rate : 5 627 Kbps

Video
ID : 224 (0xE0)
Format : MPEG Video
Format version : Version 2
Format profile : Main@Main
Format settings, BVOP : Yes
Format settings, Matrix : Custom
Format settings, GOP : Variable
Duration : 25mn 26s
Bit rate mode : Variable
Bit rate : 5 131 Kbps
Maximum bit rate : 9 800 Kbps
Width : 720 pixels
Height : 576 pixels
Display aspect ratio : 4:3
Frame rate : 25.000 fps
Standard : PAL
Color space : YUV
Chroma subsampling : 4:2:0
Bit depth : 8 bits
Scan type : Progressive
Scan order : Top Field First
Compression mode : Lossy
Bits/(Pixel*Frame) : 0.495
Time code of first frame : 00:26:35:20
Time code source : Group of pictures header
Stream size : 933 MiB (91%)

Audio
ID : 189 (0xBD)-128 (0x80)
Format : AC-3
Format/Info : Audio Coding 3
Mode extension : CM (complete main)
Format settings, Endianness : Big
Muxing mode : DVD-Video
Duration : 25mn 26s
Bit rate mode : Constant
Bit rate : 384 Kbps
Channel(s) : 2 channels
Channel positions : Front: L R
Sampling rate : 48.0 KHz
Bit depth : 16 bits
Compression mode : Lossy
Delay relative to video : -616ms
Stream size : 69.9 MiB (7%)

01 - Right Now 
02 - Big Fat Money 
03 - Top of the World 
04 - Not Enough 
05 - Amsterdam 
06 - Mine All Mine 
07 - Drum Solo 
08 - Can't Stop Lovin' You 
09 - Feelin' 
10 - Eagles Fly 
11 - (Sammy Hagar song)
12 - Guitar Solo 
13 - Why Can't This Be Love 
14 - Dreams 

Encore:
15 - Poundcake 
16 - Don't Tell Me (What Love Can Do) 
17 - Panama 





1 comment:

  1. This might be the Molson show but the cover is not correct. How do I know? I made this cover and supplied the tape used for the original Obscured DVD

    ReplyDelete