venerdì 7 dicembre 2018

Iron Maiden - 2013-09-22 - Rio De Janeiro, BR (2xDVDfull pro-shot)

(2xDVDfull pro-shot)

Iron Maiden - Rock In Rio Festival 2013

Date: 2013-09-22
Venue: World Stage, Rock In Rio Festival
City: Rio De Janeiro, RJ
Country: Brasil

Lineage:
Cable TV Live Broadcast > LG RH397H SA in XP mode > 2DVDs (NTSC)

General
Complete name : VTS_01_1.VOB
Format : MPEG-PS
File size : 918 MiB
Duration : 16mn 27s
Overall bit rate mode : Variable
Overall bit rate : 7 798 Kbps

Video
ID : 224 (0xE0)
Format : MPEG Video
Format version : Version 2
Format profile : Main@Main
Format settings, BVOP : Yes
Format settings, Matrix : Custom
Format settings, GOP : M=3, N=15
Duration : 16mn 27s
Bit rate mode : Variable
Bit rate : 7 387 Kbps
Maximum bit rate : 7 756 Kbps
Width : 720 pixels
Height : 480 pixels
Display aspect ratio : 16:9
Frame rate : 29.970 fps
Standard : NTSC
Color space : YUV
Chroma subsampling : 4:2:0
Bit depth : 8 bits
Scan type : Interlaced
Scan order : Top Field First
Compression mode : Lossy
Bits/(Pixel*Frame) : 0.713
Time code of first frame : 00:00:00;00
Time code source : Group of pictures header
Stream size : 870 MiB (95%)

Audio
ID : 189 (0xBD)-128 (0x80)
Format : AC-3
Format/Info : Audio Coding 3
Mode extension : CM (complete main)
Format settings, Endianness : Big
Muxing mode : DVD-Video
Duration : 16mn 27s
Bit rate mode : Constant
Bit rate : 256 Kbps
Channel count : 2 channels
Channel positions : Front: L R
Sampling rate : 48.0 KHz
Bit depth : 16 bits
Compression mode : Lossy
Delay relative to video : -67ms
Stream size : 30.1 MiB (3%)

DVD 1:
01 - Moonchild
02 - Can I Play With Madness
03 - The Prisoner
04 - 2 Minutes To Midnight
05 - Afraid To Shoot Strangers
06 - The Trooper
07 - The Number Of The Beast
08 - Phantom Of The Opera
09 - Run To The Hills
10 - Wasted Years

DVD 2:
01 - Seventh Son Of A Seventh Son
02 - The Clairvoyant
03 - Fear Of The Dark
04 - Iron Maiden
05 - Encore:
06 - Churchill's Speech
07 - Aces High
08 - The Evil That Men Do
09 - Running Free
10 - Fireworks
11 - Interview with Nicko

Menus: SA default
Chapters: every 5 minutes

Multishow would rebroadcast it 2 days ago but they postponed and maybe they will never do it again (probs with the beer event?). So I decided to share my version which tunrned out pretty ok concerning image and sound quality, regradless a stormy night in my city affecting many video recordings back at the day. The original is in 1080i, but for now I'm unable to transfer it to BD discs, only to downscaled DVDs in 720:480.

Nessun commento:

Posta un commento