Friday, November 24, 2017

Kiss - 1994-09-01 - Santiago de Chile, CL (DVDfull pro-shot DL)

(DVDfull pro-shot DL)

Final Edition

Monsters Of Rock '94

Show Venue:
Estación Mapocho, Santiago de Chile

Source:
DVD - Pro Shot


Video Quality/Production Info:
A+ / Mick E. Gee Productions

Audio/Video Specs:
Video
ID : 224 (0xE0)
Format : MPEG Video
Format version : Version 2
Format profile : Main@Main
Format settings, BVOP : Yes
Format settings, Matrix : Default
Format settings, GOP : M=3, N=16
Duration : 16mn 13s
Bit rate mode : Constant
Bit rate : 7 786 Kbps
Width : 720 pixels
Height : 480 pixels
Display aspect ratio : 4:3
Frame rate : 29.970 fps
Standard : NTSC
Color space : YUV
Chroma subsampling : 4:2:0
Bit depth : 8 bits
Scan type : Interlaced
Scan order : Top Field First
Compression mode : Lossy
Bits/(Pixel*Frame) : 0.752
Stream size : 900 MiB (88%)
Writing library : TMPGEnc DVD Source Creator 4 Version. 4.3.2.228

Audio #1
ID : 189 (0xBD)-128 (0x80)
Format : AC-3
Format/Info : Audio Coding 3
Mode extension : CM (complete main)
Muxing mode : DVD-Video
Duration : 16mn 12s
Bit rate mode : Constant
Bit rate : 448 Kbps
Channel(s) : 6 channels
Channel positions : Front: L C R, Side: L R, LFE
Sampling rate : 48.0 KHz
Bit depth : 16 bits
Compression mode : Lossy
Stream size : 52.0 MiB (5%)

Audio #2
ID : 189 (0xBD)-129 (0x81)
Format : AC-3
Format/Info : Audio Coding 3
Mode extension : CM (complete main)
Muxing mode : DVD-Video
Duration : 16mn 12s
Bit rate mode : Constant
Bit rate : 448 Kbps
Channel(s) : 6 channels
Channel positions : Front: L C R, Side: L R, LFE
Sampling rate : 48.0 KHz
Bit depth : 16 bits
Compression mode : Lossy
Stream size : 52.0 MiB (5%)


01 Creatures Of The Night
02 Deuce
03 Parasite
04 Unholy
05 I Stole Your Love
06 Cold Gin
07 Watchin' You
08 Firehouse
09 Calling Dr. Love
10 Makin' Love
11 War Machine
12 I Was Made For Loving You
13 I Want You
14 Domino
15 Love Gun
16 Lick It Up
17 God Of Thunder
18 I Love It Loud
19 Detroit Rock City
20 Black Diamond
21 Heaven's On Fire
22 Rock And Roll All Nite


Bonus
Kiss Soundcheck (Radio Futuro FM Broadcast)



No comments:

Post a Comment