venerdì 28 giugno 2019

The Who - 2017-08-13 - San Francisco, CA (DVDfull pro-shot)


(DVDfull pro-shot DL)

Show or Bootleg Title:
2017-08-13 - Outside Lands Music & Arts Festival, San Francisco, CA, USA (DVD9)

Source:
Video - Pro Shot

Audio/Video Specs: 
Video
ID: 224 (0xE0)
Format: MPEG Video
Format version: Version 2
Format profile: Main@Main
Format settings, BVOP : Yes
Format settings, Matrix : Default
Format settings, GOP: M=3, N=15
Bit rate: 7 768 Kbps
Width : 720 pixels
Height: 480 pixels
Display aspect ratio: 16:9
Frame rate: 29.970 (30000/1001) fps
Standard: NTSC
Color space : YUV
Chroma subsampling: 4:2:0
Bit depth : 8 bits
Scan type : Progressive
Compression mode: Lossy
Bits/(Pixel*Frame): 0.750
Time code of first frame: 00:00:00:00
Time code source: Group of pictures header
GOP, Open/Closed: Open
Stream size : 975 MiB (95%)

Audio
ID: 192 (0xC0)
Format: MPEG Audio
Format version: Version 1
Format profile: Layer 2
Bit rate mode : Constant
Bit rate: 224 Kbps
Channel(s): 2 channels
Sampling rate : 48.0 KHz
Compression mode: Lossy
Stream size : 28.2 MiB (3%)

01. I Can't Explain
02. The Seeker
03. Who Are You
04. The Kids Are Alright
05. I Can See For Miles
06. My Generation (With "Cry If You Want To" Outro) 
07. Naked Eye
08. Behind Blue Eyes
09. Bargain
10. Join Together
11. You Better You Bet
12. 5:15
13. I'm One
14. The Rock
15. Love, Reign O'er Me
16. Eminence Front
17. Amazing Journey
18. Sparks
19. Pinball Wizard
20. See Me Feel Me 
21. Baba O'Riley
22. Won't Get Fooled Again





Nessun commento:

Posta un commento