Wednesday, October 25, 2017

Fats Domino (R.I.P.) - 1962-10-19 - Paris, FR (DVDfull pro-shot)


(DVDfull pro-shot)

FATS DOMINO
10/19-24/1962
Palais des Sports (Festival de Jazz d'Antibes)
Paris, France

Video
ID : 224 (0xE0)
Format : MPEG Video
Format version : Version 2
Format profile : Main@Main
Format settings, BVOP : Yes
Format settings, Matrix : Default
Format settings, GOP : Variable
Format settings, picture structure : Frame
Duration : 7mn 35s
Bit rate mode : Variable
Bit rate : 16.6 Mbps
Maximum bit rate : 8 000 Kbps
Width : 720 pixels
Height : 480 pixels
Display aspect ratio : 4:3
Frame rate : 29.970 fps
Standard : NTSC
Color space : YUV
Chroma subsampling : 4:2:0
Bit depth : 8 bits
Scan type : Interlaced
Scan order : Top Field First
Compression mode : Lossy
Bits/(Pixel*Frame) : 1.598
Time code of first frame : 00:31:09:15
Time code source : Group of pictures header
Stream size : 899 MiB (90%)
Color primaries : BT.601 NTSC
Transfer characteristics : BT.601
Matrix coefficients : BT.601

Audio
ID : 189 (0xBD)-160 (0xA0)
Format : PCM
Format settings, Endianness : Big
Format settings, Sign : Signed
Muxing mode : DVD-Video
Duration : 7mn 35s
Bit rate mode : Constant
Bit rate : 1 536 Kbps
Channel(s) : 2 channels
Sampling rate : 48.0 KHz
Bit depth : 16 bits
Delay relative to video : -265ms
Stream size : 83.5 MiB (8%)

Setlist (43:51 min.):

01 - You Can Pack Your Suitcase
02 - I’m Ready
03 - Blue Monday
04 - Mardi Gras In New Orleans
05 - Blueberry Hill
06 - Ain’t That Just Like A Woman
07 - Let The Four Winds Blow
08 - Coquette
09 - I Want To Walk You Home
10 - My Girl Josephine
11 - I’m In Love Again
12 - Ain’t That A Shame
13 - When The Saints Go Marchin’ In

This is a very rare and early video performance of Fats Domino in a good shape quality. The date is uncertain, so if anyone could fix that, it'd be nice :)

I do notice that there's almost nothing here about early (50s/early 60s) Rock N Roll , Doo Wop, since there were lots of TV appearances of those groups back in the days and are in hands of some collectors. You can check that videobeat website and see there are lots of TV appearances of those groups and it'd be a good starting point for the Dime community for sharing these performances (if it's allowed, like those Saturday Night Beechnut shows). On the top of my head, I really wish I could see performances from the Platters, The Coasters, Santo & Johnny, Del Shannon, The Diamonds, Chuck Berry, Little Richard, Bryan Hyland, Everly Brothers etc

No comments:

Post a Comment