martedì 30 ottobre 2018

In Performance At The White House - 2012-05-21 - Washington DC (DVDfull pro-shot)

(DVDfull pro-shot)

Burt Bacharach & Hal David:
The Library of Congress Gershwin Prize For Popular Song -
In Performance At The White House
Washington D.C.
The White House - East Room
Taped: May 9, 2012
Aired: May 21, 2012

http://www.pbs.org/inperformanceatthewhitehouse/
A star-studded tribute to the songwriting team who penned such classic tunes as "Raindrops Keep Fallin' On My Head," "What The World Needs Now is Love," "Walk on By" and "Alfie." Composer Bacharach and lyricist David's extraordinary collaboration has produced numerous hits and enjoyed a resurgence in popularity, with songs featured in the "Austin Powers" films and an episode of "Glee."

Lineage: HD 1080i Digital Broadcast > Component Cables / S/PDIF Cable > Hauppauge HD-PVR > h.264 .m2ts file @ 13.5mbps/384kbps 6-Channel AC-3 Audio (No encoding of audio) > TMPGEnc Authoring Works 4 (Menu, Chapters, Author DVD) > DVD Files

01. Opening
02. I'll Never Fall In Love Again - Sheryl Crow & Lyle Lovett
03. Make It Easy On Yourself - Stevie Wonder & Arturo Sandoval
04. The Look Of Love - Diana Krall
05. Anyone Who Had A Heart - Shelea & Arturo Sandoval
06. What's New Pussycat - Mike Myers
07. A House Is Not A Home - Rumer
08. (There's) Always Something There To Remind Me - Lyle Lovett
09. Walk On By - Sheryl Crow
10. (They Long To Be) Close To You - Michael Feinstein
11. Alfie - Stevie Wonder
12. President Barack Obama
13. Eunice David
14. Burt Bacharach
15. What The World Needs Now Is Love - Burt Bacharach with All Artists
16. Credits

House Band:
Robert Mounsey (Music Director, Piano and Keyboards)
David Mann (Saxophone)
Anthony Kadleck (Trumpet)
Henry Hey (Keyboards)
David Finck (Bass)
Ben Butler (Guitar)'
Bashiri Johnson (Percussion)
Shawn Pelton (Drums)
Fonzi Thornton (Background Vocals)
Vaneese Thomas (Background Vocals)
Jill DellíAbate (Background Vocals)

Format : MPEG-PS
File size : 2.54 GiB
Duration : 56mn 36s
Overall bit rate mode : Variable
Overall bit rate : 6 423 Kbps

Video
ID : 224 (0xE0)
Format : MPEG Video
Format version : Version 2
Format profile : Main@Main
Format settings, BVOP : Yes
Format settings, Matrix : Custom
Format settings, GOP : M=3, N=18
Duration : 56mn 36s
Bit rate mode : Variable
Bit rate : 5 911 Kbps
Maximum bit rate : 8 000 Kbps
Width : 720 pixels
Height : 480 pixels
Display aspect ratio : 16:9
Frame rate : 29.970 fps
Standard : NTSC
Color space : YUV
Chroma subsampling : 4:2:0
Bit depth : 8 bits
Scan type : Interlaced
Scan order : Top Field First
Compression mode : Lossy
Bits/(Pixel*Frame) : 0.571
Stream size : 2.34 GiB (92%)
Color primaries : BT.470-2 System B, BT.470-2 System G
Transfer characteristics : BT.470-2 System B, BT.470-2 System G
Matrix coefficients : BT.470-2 System B, BT.470-2 System G

Audio
ID : 189 (0xBD)-128 (0x80)
Format : AC-3
Format/Info : Audio Coding 3
Mode extension : CM (complete main)
Muxing mode : DVD-Video
Duration : 56mn 36s
Bit rate mode : Constant
Bit rate : 384 Kbps
Channel(s) : 6 channels
Channel positions : Front: L C R, Side: L R, LFE
Sampling rate : 48.0 KHz
Bit depth : 16 bits
Compression mode : Lossy
Stream size : 155 MiB (6%)



Nessun commento:

Posta un commento