mercoledì 2 gennaio 2019

Stevie Wonder - 2012-10-24 - New York City, NY (DVDfull pro-shot)


(DVDfull pro-shot)

Stevie Wonder: A Message Of Peace UN Concert

UN General Assembly Hall
Taped: 2012-10-24 (United Nations Day)
Originally Aired: 2013-02-23 (Centric Network)
Recorded: 2013-03-03 (BET Network)

Lineage:

Digital HD 1080i Broadcast > Component Cables / Optical Audio > Hauppauge HD-PVR > 17mbps Variable Bitrate h.264 / 384kbps AC-3 Audio (audio stream capture / no encoding) > .m2ts file on PC > VideoRedo (remove commercials, add chapters, no re-encoding) > .mkv > TMPGEnc Authoring Works 5 (menu, author DVD) > DVD files

General

Format : MPEG-PS
File size : 4.04 GiB
Duration : 1h 20mn
Overall bit rate mode : Variable
Overall bit rate : 7 188 Kbps
Writing library : encoded by TMPGEnc Authoring Works 5 Version. 5.0.8.26

Video

ID : 224 (0xE0)
Format : MPEG Video
Format version : Version 2
Format profile : Main@Main
Format settings, BVOP : Yes
Format settings, Matrix : Custom
Format settings, GOP : Variable
Duration : 1h 20mn
Bit rate mode : Variable
Bit rate : 6 661 Kbps
Maximum bit rate : 8 000 Kbps
Width : 720 pixels
Height : 480 pixels
Display aspect ratio : 16:9
Frame rate : 29.970 fps
Standard : NTSC
Color space : YUV
Chroma subsampling : 4:2:0
Bit depth : 8 bits
Scan type : Interlaced
Scan order : Top Field First
Compression mode : Lossy
Bits/(Pixel*Frame) : 0.643
Time code of first frame : 00:00:00:00
Time code source : Group of pictures header
Stream size : 3.74 GiB (93%)
Writing library : TMPGEnc Authoring Works 5 Version. 5.0.8.26
Color primaries : BT.601 NTSC
Transfer characteristics : BT.601
Matrix coefficients : BT.601

Audio

ID : 189 (0xBD)-128 (0x80)
Format : AC-3
Format/Info : Audio Coding 3
Mode extension : CM (complete main)
Format settings, Endianness : Big
Muxing mode : DVD-Video
Duration : 1h 20mn
Bit rate mode : Constant
Bit rate : 384 Kbps
Channel(s) : 2 channels
Channel positions : Front: L R
Sampling rate : 48.0 KHz
Bit depth : 16 bits
Compression mode : Lossy
Stream size : 221 MiB (5%)


01. Introduction
02. Sir Duke (with The Preservation Hall Jazz Band)
03. Malcolm Jamal Warner
04. Fragile (with Sting)
05. You Are The Sunshine Of My Life (with Elle Varner)
06. My Cherie Amour (with Dr. L. Subramaniam)
07. Malcolm Jamal Warner & Debra Lee
08. Master Blaster (Jammin') (with Wyclef Jean & Doug E. Fresh)
09. Visions
10. Ngiculela - Es Una Historia - I Am Singing (with Janelle Monae & Jasmine Cruz)
11. Sting
12. Blowin' In The Wind (with Estelle)
13. Jesus Children Of America (with BeBe Winans)
14. Love's In Need Of Love Today (with Freddie Jackson)
15. Heaven Help Us All (with BeBe Winans, Freddie Jackson & Stephanie Mills)
16. Superstition (with Doug E. Fresh)
17. What The World Needs Now Is Love (with The Wonder Girls)
18. As (with Stephanie Mills)
19. Stevie & Emmanuel
20. Higher Ground (with Janelle Monae)
21. Reach Out And Touch (Somebody's Hand) (with Valerie Simpson, BeBe Winans & Freddie Jackson)
22. Closing (Malcolm Jamal Warner, Debra Lee & Stevie Wonder)
23. Happy Birthday (Finale) (with All Artists) 


1 commento:

  1. Thank you for the good writeup. It actually was a enjoyment account it.

    Glance complicated to far added agreeable from you! By the way, how could we keep up a correspondence?


    Feel free to visit my web-site; http://masfoxpro.com/index.php?title=The_Gains_Of_Making_Use_Of_Masticating_Juicers

    RispondiElimina