martedì 24 ottobre 2017

Evanescence - 2011-10-02 - Rio de Janeiro, BR (DVDfull pro-shot)

(DVDfull pro-shot)

Rock In Rio

recorded from cable analogue TV Multishow with a Panasonic Standalone DVD Recorder with Hard Disk

low quality sample:
http://www.youtube.com/watch?v=oiy8Fl_eMQI

Video
ID : 224 (0xE0)
Format : MPEG Video
Format version : Version 2
Format profile : Main@Main
Format settings, BVOP : Yes
Format settings, Matrix : Custom
Format settings, GOP : M=3, N=18
Duration : 30mn 14s
Bit rate mode : Variable
Bit rate : 4 380 Kbps
Width : 720 pixels
Height : 480 pixels
Display aspect ratio : 4:3
Frame rate : 29.970 fps
Standard : NTSC
Color space : YUV
Chroma subsampling : 4:2:0
Bit depth : 8 bits
Scan type : Interlaced
Scan order : Top Field First
Compression mode : Lossy
Bits/(Pixel*Frame) : 0.423
Stream size : 948 MiB (93%)


Audio
ID : 189 (0xBD)-128 (0x80)
Format : AC-3
Format/Info : Audio Coding 3
Mode extension : CM (complete main)
Muxing mode : DVD-Video
Duration : 30mn 13s
Bit rate mode : Constant
Bit rate : 256 Kbps
Channel(s) : 2 channels
Channel positions : Front: L R
Sampling rate : 48.0 KHz
Bit depth : 16 bits
Compression mode : Lossy
Stream size : 55.4 MiB (5%)


01 - What you want
02 - Going under
03 - The other side
04 - Weight of the world
05 - Made of stone
06 - My immortal
07 - My heart is broken
08 - Your star
09 - Sick
10 - The change
11 - Sober
12 - Imaginary
13 - Never go back
14 - Bring me to my life 


Nessun commento:

Posta un commento