Friday, June 9, 2017

Stevie Wonder - 2015-02-16 - Los Angeles, CA (DVDfull pro-shot)

(DVDfull pro-shot)

Songs In The Key Of Life: An All-Star Grammy Salute
Taped: Tuesday, February 10, 2015 - Nokia Theatre - Los Angeles, CA
Aired: Monday, February 16, 2015 - CBS

Lineage:
HD 1080i Broadcast > Component Cables / Optical Audio > Hauppauge HD PVR > HD PVR Capture @ 13.5mbps vbr h.264 / 384kbps 6-channel AC-3 Audio (Stream Capture/No Encoding Of Audio) > .m2ts file > Video ReDo (remove commercials, chapter marks, remux file - no re-encoding) > .mkv > TMPGEnc Authoring Works 5 (author DVD)

General
Format : MPEG-PS
File size : 4.09 GiB
Duration : 1h 28mn
Overall bit rate mode : Variable
Overall bit rate : 6 608 Kbps
Writing library : encoded by TMPGEnc Authoring Works 5 Version. 5.2.2.61

Video
ID : 224 (0xE0)
Format : MPEG Video
Format version : Version 2
Format profile : Main@Main
Format settings, BVOP : Yes
Format settings, Matrix : Custom
Format settings, GOP : Variable
Duration : 1h 28mn
Bit rate mode : Variable
Bit rate : 6 092 Kbps
Maximum bit rate : 8 000 Kbps
Width : 720 pixels
Height : 480 pixels
Display aspect ratio : 16:9
Frame rate : 29.970 fps
Standard : NTSC
Color space : YUV
Chroma subsampling : 4:2:0
Bit depth : 8 bits
Scan type : Interlaced
Scan order : Top Field First
Compression mode : Lossy
Bits/(Pixel*Frame) : 0.588
Time code of first frame : 00:00:00:00
Time code source : Group of pictures header
Stream size : 3.78 GiB (92%)
Writing library : TMPGEnc Authoring Works 5 Version. 5.2.2.61
Color primaries : BT.601 NTSC
Transfer characteristics : BT.601
Matrix coefficients : BT.601

Audio
ID : 189 (0xBD)-128 (0x80)
Format : AC-3
Format/Info : Audio Coding 3
Mode extension : CM (complete main)
Format settings, Endianness : Big
Muxing mode : DVD-Video
Duration : 1h 28mn
Bit rate mode : Constant
Bit rate : 384 Kbps
Channel(s) : 6 channels
Channel positions : Front: L C R, Side: L R, LFE
Sampling rate : 48.0 KHz
Bit depth : 16 bits
Compression mode : Lossy
Stream size : 244 MiB (6%)

01: Opening Credits
02. Fingertips/Master Blaster (Jammin’)/Higher Ground - Beyoncé, Ed Sheeran & Gary Clark Jr.
03. LL Cool J
04. I Believe (When I Fall In Love It Will Be Forever) - John Legend
05. Maya Rudolph
06. I Wish - Lady Gaga
07. Retrospective
08. Jason Derulo
09. Signed, Sealed, Delivered I’m Yours - Babyface & Ariana Grande
10. My Cherie Amour - Annie Lennox
11. Paul McCartney
12. Don’t You Worry ‘Bout A Thing - Pharrell Williams & Ryan Tedder
13. For Once In My Life - Tony Bennett
14. I Was Made To Love Her - Ed Sheeran
15. You Haven’t Done Nothin’ - The Band Perry
16. Mary Wilson
17. As - Janelle Monáe, Jill Scott & India.Arie
18. I Just Called To Say I Love You - Andrea Bocelli
19. All In Love Is Fair - Jennifer Hudson
20. LL Cool J
21. Isn’t She Lovely - Ne-Yo & Aisha Morris
22. Jamie Foxx
23. Contusion/Sir Duke/You Are The Sunshine Of My Life/Ribbon In The Sky/Overjoyed/Superstition - Stevie Wonder
24. MLK Jr. Retrospective
25. Stevie Wonder
26. Happy Birthday/Another Star (Finale) - Stevie Wonder & All Artists

No comments:

Post a Comment