Friday, June 2, 2017

Albert King & BB King - 1989-05-16 - Tokyo, JP (DVDfull pro-shot)

(DVDfull pro-shot)

SOUND COLISEUM, TOKYO, JAPAN.

not sure of linage

Bb King Band
Bb King......Guitar & Vocals
James Toney....Keyboards
Leon Warren.....Guitar
Michael Doster....Bass
Calep Emphrey...Drums
James Boldem...Trumpet
Edgar Synigal...Saxophone
Walter King...Saxophone

INFO:
Format : MPEG-PS
File size : 1 024 MiB
Duration : 30mn 19s
Overall bit rate mode : Variable
Overall bit rate : 4 722 Kbps

Video
ID : 224 (0xE0)
Format : MPEG Video
Format version : Version 2
Format profile : Main@Main
Format settings, BVOP : Yes
Format settings, Matrix : Custom
Format settings, GOP : M=3, N=15
Duration : 30mn 19s
Bit rate mode : Variable
Bit rate : 4 372 Kbps
Maximum bit rate : 8 832 Kbps
Width : 720 pixels
Height : 480 pixels
Display aspect ratio : 4:3
Frame rate : 29.970 fps
Standard : NTSC
Color space : YUV
Chroma subsampling : 4:2:0
Bit depth : 8 bits
Scan type : Interlaced
Scan order : Top Field First
Compression mode : Lossy
Bits/(Pixel*Frame) : 0.422
Stream size : 948 MiB (93%)
Color primaries : BT.601 NTSC
Transfer characteristics : BT.601
Matrix coefficients : BT.601

Audio
ID : 189 (0xBD)-128 (0x80)
Format : AC-3
Format/Info : Audio Coding 3
Mode extension : CM (complete main)
Format settings, Endianness : Big
Muxing mode : DVD-Video
Duration : 30mn 19s
Bit rate mode : Constant
Bit rate : 256 Kbps
Channel(s) : 2 channels
Channel positions : Front: L R
Sampling rate : 48.0 KHz
Bit depth : 16 bits
Compression mode : Lossy
Delay relative to video : -144ms
Stream size : 55.5 MiB (5%)

**EARLINE OWENS**
- Take Your Hands Off Of Him

**ALBERT KING**
- Outskirts Of Town
- The Sky Is Cryin'
- I'll Play The Blues For You
- Floodin' In California
- Overhaul Junction

**B.B. KING**
- B.B.'s Blues
- Let The Good Times Roll
- When It All Comes Down
- All Over Again
- Why I Sing The Blues
- Darling You Know I Love You
- The Thrill Is Gone

Duration: 1 hour and 30 mins

Awesome video, great performance by these blues legends I think this is taken from TV but not really sure it is for sure a master source the video quality and audio quality is fantastic especially considering the age of the video.

No comments:

Post a Comment