Saturday, July 1, 2017

The Eagles - 1995-11-26 - Christchurch, NZ (2xDVDfull pro-shot)


(2xDVDfull pro-shot)

Eagles - New Zealand Concert

DVD 5
DVD Video
MPEG2
AC-3.
NTSC 720x480 (16:9) 29.97fps 7000kbps
Dolby AC3 48000Hz stereo 192kbps

Video
ID : 224 (0xE0)
Format : MPEG Video
Format version : Version 2
Format profile : Main@Main
Format settings, Matrix : Default
Duration : 15mn 21s
Bit rate mode : Constant
Bit rate : 6 796 Kbps
Nominal bit rate : 7 000 Kbps
Width : 720 pixels
Height : 480 pixels
Display aspect ratio : 16:9
Frame rate : 29.970 fps
Standard : NTSC
Colorimetry : 4:2:0
Scan type : Interlaced
Scan order : Bottom Field First
Bits/(Pixel*Frame) : 0.656
Stream size : 747 MiB (73%)

Audio #1
ID : 128 (0x80)
Format : AC-3
Format/Info : Audio Coding 3
Duration : 15mn 22s
Bit rate mode : Constant
Bit rate : 192 Kbps
Channel(s) : 2 channels
Channel positions : L R
Sampling rate : 48.0 KHz
Video delay : -446ms
Stream size : 21.1 MiB (2%)

Audio #2
ID : 129 (0x81)
Format : AC-3
Format/Info : Audio Coding 3
Duration : 15mn 22s
Bit rate mode : Constant
Bit rate : 448 Kbps
Channel(s) : 6 channels
Channel positions : Front: L C R, Surround: L R, LFE
Sampling rate : 48.0 KHz
Video delay : -446ms
Stream size : 49.2 MiB (5%)

Audio #3
ID : 138 (0x8A)
Format : DTS
Format/Info : Digital Theater Systems
Duration : 15mn 22s
Bit rate mode : Constant
Bit rate : 1 510 Kbps
Channel(s) : 6 channels
Channel positions : Front: L C R, Surround: L R, LFE
Sampling rate : 48.0 KHz
Resolution : 24 bits
Video delay : -499ms
Stream size : 166 MiB (16%)

Glenn Frey
Don Henley
Joe Walsh
Don Felder
Timothy B. Schmit
John Corey
Timothy Drury
Scott Crago
Al Garth

DVD1
01 Hotel California
02 Victim Of Love
03 New Kid In Town
04 Wasted Time
05 Pretty Maids All In A Row
06 The Girl from Yesterday
07 I Can´t Tell You Why
08 Ordinary Average Guy
09 Lyin´ Eyes
10 One of These Nights

DVD2
01 Tequila Sunrise
02 Help Me Thru The Night
03 Love Will Keep US Alive
04 The Heart Of The Matter
05 You Belong To The City
06 The Boys Of Summer
07 Funk 49
08 Dirty Laundry
09 Smuggler's Blues
10 Life's Been Good
11 Heartache Tonight
12 Life in the Fast Lane
13 Already Gone
14 Rocky Mountain Way
15 Desperado
16 Take It Easy

No comments:

Post a Comment