Saturday, August 12, 2017

U2 - 2015-11-11 - Paris, FR (DVDfull pro-shot DL)

(DVDfull pro-shot DL)

U2
Tour: iNNOCENCE + eXPERIENCE Tour
Venue: AccorHotels Arena
City - Country: Paris, France
Date: 11 November 2015

Lineage: 
HD File (NTSC) -> ConvertX2DVD (2 Pass encoding) -> DVD9 (NTSC / as source file) -> VideoREDO (trimming and chapters every 5 minutes / No re-encoding) -> DVD9

General
Complete name : G:\U2 - Paris 11-11- 2015 (DVD9)\VIDEO_TS\VTS_01_1.VOB
Format : MPEG-PS
File size : 1 024 MiB
Duration : 18mn 12s
Overall bit rate mode : Variable
Overall bit rate : 7 862 Kbps
Writing library : (dvd5: Jun 16 2014)

Video
ID : 224 (0xE0)
Format : MPEG Video
Format version : Version 2
Format profile : Main@Main
Format settings, BVOP : Yes
Format settings, Matrix : Default
Format settings, GOP : M=3, N=15
Duration : 18mn 12s
Bit rate mode : Variable
Bit rate : 7 514 Kbps
Maximum bit rate : 9 008 Kbps
Width : 720 pixels
Height : 480 pixels
Display aspect ratio : 16:9
Frame rate : 29.970 fps
Standard : NTSC
Color space : YUV
Chroma subsampling : 4:2:0
Bit depth : 8 bits
Scan type : Progressive
Compression mode : Lossy
Bits/(Pixel*Frame) : 0.725
Time code of first frame : 00:00:00:00
Time code source : Group of pictures header
GOP, Open/Closed : Closed
Stream size : 979 MiB (96%)
Writing library : (dvd5: Jun 16 2014)

Audio
ID : 189 (0xBD)-128 (0x80)
Format : AC-3
Format/Info : Audio Coding 3
Mode extension : CM (complete main)
Format settings, Endianness : Big
Muxing mode : DVD-Video
Duration : 18mn 12s
Bit rate mode : Constant
Bit rate : 192 Kbps
Channel(s) : 2 channels
Channel positions : Front: L R
Sampling rate : 48.0 KHz
Compression mode : Lossy
Stream size : 25.0 MiB (2%)

01 - People Have the Power (Patti Smith song)
02 - The Miracle (of Joey Ramone)
03 - Vertigo
04 - I Will Follow (with 'Mother' snippet)
05 - Iris (Hold Me Close) (Some skips)
06 - Cedarwood Road (Some skips)
07 - Song for Someone
08 - Sunday Bloody Sunday
09 - Raised by Wolves (with 'Psalm 23' snippet)
10 - Until the End of the World (with 'Love And Peace Or Else' / 'Words' snippet)
11 - Invisible
12 - Even Better Than the Real Thing (with 'Break On Through' snippet)
13 - Mysterious Ways (with 'Burning Down the House' snippet)
14 - Elevation
15 - Every Breaking Wave (acoustic)
16 - October
17 - Bullet the Blue Sky (with 'Ode To Joy' / '19' snippet)
18 - Zooropa
19 - Where the Streets Have No Name (with 'California (There Is No End To Love)' snippet)
20 - Pride (In the Name of Love)
21 - With or Without You

Encore
22 - City of Blinding Lights
23 - Beautiful Day
24 - One ('Mother and Child Reunion' intro / 'Invisible' snippet)

3 comments:

  1. At the risk of sounding ungrateful, would someone be so kind as to do an audio rip of this DVD? This is the show I've been waiting to hear! Cheers.

    ReplyDelete
  2. an audio rip would be appreciated. thanks!

    ReplyDelete
  3. i got on blu ray it`s amazin audio 5.1 video full hdª

    ReplyDelete