Saturday, May 6, 2017

Bon Jovi - 2010-11-06 - ITV Studios, London UK (MKV/pro-shot)

(HDTV MKV pro-shot)

Jon Bon Jovi -  vocals
Richie Sambora - guitar
David Bryan - keyboards
Tico Torres - drums

01. You give love a bad name
02. Wanted dead or alive
03. It's my life
04. Livin' on a prayer
05. That's alright
06. Keep the faith
07. What do you got?
08. When we were beautiful
09. Who says you can't go home

Time: 47mn 57s

Media Info:

General
Format: Matroska
File size: 1.25 GiB
Duration: 47mn 57s
Overall bit rate: 3 729 Kbps
Encoded date: UTC 2010-11-07 02:09:36
Writing application: mkvmerge v3.2.0 ('Beginnings') built on Feb 12 2010 16:46:17
Writing library: libebml v0.7.9 + libmatroska v0.8.1

Video
ID: 1
Format: AVC
Format/Info: Advanced Video Codec
Format profile: High@L4.1
Format settings, CABAC: Yes
Format settings, ReFrames: 5 frames
Muxing mode: Container profile=Unknown@4.1
Codec ID: V_MPEG4/ISO/AVC
Duration: 47mn 57s
Bit rate: 3 472 Kbps
Width: 1 280 pixels
Height: 720 pixels
Display aspect ratio: 16:9
Frame rate: 25.000 fps
Color space: YUV
Chroma subsampling: 4:2:0
Bit depth: 8 bits
Scan type: Progressive
Bits/(Pixel*Frame): 0.151
Stream size: 1.14 GiB (91%)
Writing library: x264 core 80 r1376M 3feaec2


Audio
ID: 2
Format: AC-3
Format/Info: Audio Coding 3
Mode extension: CM (complete main)
Codec ID: A_AC3
Duration: 47mn 57s
Bit rate mode: Constant
Bit rate: 256 Kbps
Channel(s): 2 channels
Channel positions: Front: L R
Sampling rate: 48.0 KHz
Bit depth: 16 bits
Stream size: 87.8 MiB (7%)
Language: English

Size:
1,25 Gb



No comments:

Post a Comment