Wednesday, June 28, 2017

The Doors - Light Our Fire - Video Collection (DVDfull pro-shot)

(DVDfull pro-shot)

The Doors - Light Our Fire - Video Collection

Video Quality/Production Info:
Video: B+ Audio: B+

Audio/Video Specs:
Video
ID : 224 (0xE0)
Format : MPEG Video
Format version : Version 2
Format profile : Main@High
Format settings, BVOP : No
Format settings, Matrix : Default
Format settings, GOP : M=3, N=15
Duration : 27mn 11s
Bit rate mode : Variable
Bit rate : 4 521 Kbps
Maximum bit rate : 7 456 Kbps
Width : 720 pixels
Height : 480 pixels
Display aspect ratio : 4:3
Frame rate : 29.970 fps
Standard : NTSC
Color space : YUV
Chroma subsampling : 4:2:0
Bit depth : 8 bits
Scan type : Progressive
Compression mode : Lossy
Bits/(Pixel*Frame) : 0.436
Time code of first frame : 00:00:00:00
Time code source : Group of pictures header
Stream size : 879 MiB (86%)
Color primaries : BT.470 System M
Transfer characteristics : BT.470 System M
Matrix coefficients : BT.601

Audio #1
ID : 189 (0xBD)-128 (0x80)
Format : AC-3
Format/Info : Audio Coding 3
Mode extension : CM (complete main)
Format settings, Endianness : Big
Muxing mode : DVD-Video
Duration : 27mn 10s
Bit rate mode : Constant
Bit rate : 320 Kbps
Channel(s) : 2 channels
Channel positions : Front: L R
Sampling rate : 48.0 KHz
Bit depth : 16 bits
Compression mode : Lossy
Stream size : 62.2 MiB (6%)

Format:
NTSC

01 - Copenhagen Tv. Studio 1968 Performance
02 - Love Me Two Times (Promo)
03 - Wild Child
04 - Unknown Soldier (Hollywood Bowl)
05 - Break On Through (Promo)
06 - Roadhouse Blues (Promo)
07 - Gloria
08 - Wake Up / Light My Fire (Short Version) Hollywood Bowl
09 - Break On Through (Motion Picture Promo)
10 - TV Ads (English Version / French Version / International Version)
11 - Feast Of Friends (38:16)
12 - Touch Me / Wild Child (Smothers Brothers)
13 - People Are Strange



No comments:

Post a Comment