venerdì 8 giugno 2018

Suzanne Vega - 2007-11-01 - Basel, CH (DVDfull pro-shot)

(DVDfull pro-shot)

AVO Session

Lineage:
EyeTV -> iMac -> Toast Titanium 9 -> Transmission 1.34

Menu: No

MediaInfo:
General
Complete name : /media/HD-LBU2/ROIOs/Video/Suzanne Vega/DVD 165 - SUZANNE VEGA - ProShot DVD - AVO Session 2007/VIDEO_TS/VTS_01_1.VOB
Format : MPEG-PS
File size : 1 008 MiB
Duration : 21mn 8s
Overall bit rate mode : Variable
Overall bit rate : 6 669 Kbps

Video
ID : 224 (0xE0)
Format : MPEG Video
Format version : Version 2
Format profile : Main@Main
Format settings, BVOP : Yes
Format settings, Matrix : Custom
Format settings, GOP : M=3, N=12
Duration : 21mn 8s
Bit rate mode : Variable
Bit rate : 6 152 Kbps
Maximum bit rate : 8 000 Kbps
Width : 720 pixels
Height : 576 pixels
Display aspect ratio : 4:3
Frame rate : 25.000 fps
Standard : PAL
Color space : YUV
Chroma subsampling : 4:2:0
Bit depth : 8 bits
Scan type : Interlaced
Scan order : Top Field First
Compression mode : Lossy
Bits/(Pixel*Frame) : 0.593
Stream size : 930 MiB (92%)

Audio
ID : 192 (0xC0)
Format : MPEG Audio
Format version : Version 1
Format profile : Layer 2
Duration : 21mn 7s
Bit rate mode : Constant
Bit rate : 384 Kbps
Channel(s) : 2 channels
Sampling rate : 48.0 KHz
Compression mode : Lossy
Delay relative to video : -59ms
Stream size : 58.0 MiB (6%)

Suzanne Nadine Vega - Vocals
Michael J. Visceglia - Bass
Douglas Yowell - Drums
Benedict Richard Butler - Guitar
Laila Biali - Keyboard

01. Marlene On The Wall (4:08)
02. Ludlow Street (3:47)
03. New York Is A Woman (3:29)
04. Caramel (3:32)
05. Frank & Ava (3:19)
06. Gypsy (5:07)
07. (I'll Never Be) Your Maggie May (5:32)
08. Blood Makes Noise (2:25)
09. Angels Doorway (4:32)
10. Pornoprapher's Dream (4:24)
11. Unbound (4:05)
12. Luka (4:00)
13. Tom's Diner (6:11)

Total running: 54min 35sec

Nessun commento:

Posta un commento