mercoledì 27 novembre 2019

Peter Gabriel - 2011-11-13 - Sao Paulo, BR (DVDfull pro-shot)

(DVDfull pro-shot)

SWU Festival

recorded from cable analogue TV Multishow ( I don´t know if the complete show was broadcasted in HD ) in SP mode with a Panasonic Standalone DVD Recorder with Hard Disk. there were some technical problems because of the heavy rain

info :
General
Format: MPEG-PS
File size : 1 024 MiB
Duration: 30mn 0s
Overall bit rate: 4 769 Kbps

Video
ID: 224 (0xE0)
Format: MPEG Video
Format version: Version 2
Format profile: Main@Main
Format settings, BVOP : Yes
Format settings, Matrix : Custom
Format settings, GOP: M=3, N=15
Duration: 30mn 0s
Bit rate: 4 380 Kbps
Width : 720 pixels
Height: 480 pixels
Display aspect ratio: 4:3
Frame rate: 29.970 fps
Standard: NTSC
Color space : YUV
Chroma subsampling: 4:2:0
Bit depth : 8 bits
Scan type : Interlaced
Scan order: Top Field First
Compression mode: Lossy
Bits/(Pixel*Frame): 0.423
Stream size : 949 MiB (93%)

Audio
ID: 189 (0xBD)-128 (0x80)
Format: AC-3
Format/Info : Audio Coding 3
Mode extension: CM (complete main)
Muxing mode : DVD-Video
Duration: 30mn 0s
Bit rate mode : Constant
Bit rate: 256 Kbps
Channel(s): 2 channels
Channel positions : Front: L R
Sampling rate : 48.0 KHz
Bit depth : 16 bits
Compression mode: Lossy
Delay relative to video : -490ms
Stream size : 55.0 MiB (5%)


01-Heroes
02-Wallflower
03-Intruder
04-San Jacinto
05-Secret World
06-Signal To Noise
07-Downside Up
08-Mercy Street
09-The Rhythm Of The Heat
10-Father, Son
11-Red Rain
12-Solsbury Hill
13-In Your Eyes
14-Don't Give Up
15-Biko


sample on youtube


1 commento: