Monday, May 8, 2017

Duran Duran - 2011-11-13 - Sao Paulo, BR (DVDFull pro-shot)

(DVDFull pro-shot)

credit to Geophagus

recorded by me from cable analogue TV Multishow ( I don´t know if the complete show was broadcasted in HD ) in SP mode with a Panasonic Standalone DVD Recorder with Hard Disk

info:
General
Format: MPEG-PS
File size : 1 024 MiB
Duration: 30mn 0s
Overall bit rate: 4 770 Kbps

Video
ID: 224 (0xE0)
Format: MPEG Video
Format version: Version 2
Format profile: Main@Main
Format settings, BVOP : Yes
Format settings, Matrix : Custom
Format settings, GOP: M=3, N=15
Duration: 30mn 0s
Bit rate: 4 380 Kbps
Width : 720 pixels
Height: 480 pixels
Display aspect ratio: 4:3
Frame rate: 29.970 fps
Standard: NTSC
Color space : YUV
Chroma subsampling: 4:2:0
Bit depth : 8 bits
Scan type : Interlaced
Scan order: Top Field First
Compression mode: Lossy
Bits/(Pixel*Frame): 0.423
Stream size : 949 MiB (93%)

Audio
ID: 189 (0xBD)-128 (0x80)
Format: AC-3
Format/Info : Audio Coding 3
Mode extension: CM (complete main)
Muxing mode : DVD-Video
Duration: 30mn 0s
Bit rate mode : Constant
Bit rate: 256 Kbps
Channel(s): 2 channels
Channel positions : Front: L R
Sampling rate : 48.0 KHz
Bit depth : 16 bits
Compression mode: Lossy
Delay relative to video : -491ms
Stream size : 55.0 MiB (5%)

01 - Planet Earth
02 - A View to a Kill
03 - All You Need Is Now
04 - Safe
05 - Come Undone
06 - The Reflex
07 - Girl Panic!
08 - The Chauffeur
09 - Ordinary World
10 - Notorious
11 - Hungry Like The Wolf
12 - (Reach Up For The) Sunrise

Encores:
13 - The Wild Boys
14 - Rio

sample
http://www.youtube.com/watch?v=QmzUNEedBS8

WARNING:
there are some big glitches, especially in the first 2 songs, caused probably by the heavy rain during the live broadcasting. This is not a dvd media problem

No comments:

Post a Comment