martedì 26 novembre 2019

Paul McCartney - 2018-10-05 - Austin, TX (DVDfull pro-shot)


(DVDfull pro-shot)

Paul McCartney
Austin City Limits Music Festival 
American Express Stage 
Zilker Park 
Austin, Texas 
October 5, 2018
(broadcast date: October 7, 2018) 

mediainfo:
General
Complete name : /media/dvd/Paul McCartney - 2018 - ACL - DVD9/VIDEO_TS/VTS_02_1.VOB
Format : MPEG-PS
File size : 1 024 MiB
Duration : 25mn 50s
Overall bit rate mode : Variable
Overall bit rate : 5 541 Kbps

Video
ID : 224 (0xE0)
Format : MPEG Video
Format version : Version 2
Format profile : Main@Main
Format settings, BVOP : Yes
Format settings, Matrix : Default
Format settings, GOP : M=3, N=12
Duration : 25mn 50s
Bit rate mode : Variable
Bit rate : 5 207 Kbps
Maximum bit rate : 9 000 Kbps
Width : 720 pixels
Height : 480 pixels
Display aspect ratio : 16:9
Frame rate : 29.970 (30000/1001) fps
Standard : NTSC
Color space : YUV
Chroma subsampling : 4:2:0
Bit depth : 8 bits
Scan type : Progressive
Compression mode : Lossy
Bits/(Pixel*Frame) : 0.503
Time code of first frame : 00:00:00:00
Time code source : Group of pictures header
GOP, Open/Closed : Open
GOP, Open/Closed of first frame : Closed
Stream size : 962 MiB (94%)

Audio
ID : 189 (0xBD)-128 (0x80)
Format : AC-3
Format/Info : Audio Coding 3
Mode extension : CM (complete main)
Format settings, Endianness : Big
Muxing mode : DVD-Video
Duration : 25mn 49s
Bit rate mode : Constant
Bit rate : 224 Kbps
Channel(s) : 2 channels
Channel positions : Front: L R
Sampling rate : 48.0 KHz
Frame rate : 31.250 fps (1536 spf)
Compression mode : Lossy
Delay relative to video : -5ms
Stream size : 41.4 MiB (4%)

Lineage: 
Red Bull TV "LIVE" Webcast -> downloaded .ts segments (batch script) -> TSSplitter (join) -> FFmpeg (edit) -> uncompressed .ts >> DevedeNG (convert to DVD .vob with FFmpeg in Linux)

01 - A Hard Day's Night (The Beatles song)
02 - Hi, Hi, Hi (Wings song)
03 - Can't Buy Me Love (The Beatles song)
04 - Letting Go (Wings song)
05 - Come On to Me
06 - Let Me Roll It (Wings song with Jimi Hendrix's "Foxy Lady" outro")
07 - I've Got a Feeling (The Beatles song)
08 - My Valentine
09 - Nineteen Hundred and Eighty-Five (Wings song)
10 - Maybe I'm Amazed
11 - I've Just Seen a Face (The Beatles song)
12 - In Spite of All the Danger (The Quarrymen song)
13 - From Me to You (The Beatles song)
14 - Love Me Do (The Beatles song)
15 - Blackbird (The Beatles song)
16 - Here Today
17 - Lady Madonna (The Beatles song)
18 - Fuh You
19 - Being for the Benefit of Mr. Kite! (The Beatles song)
20 - Something (The Beatles song)
21 - Ob-La-Di, Ob-La-Da (The Beatles song)
22 - Band on the Run (Wings song)
23 - Back in the U.S.S.R. (The Beatles song)
24 - Let It Be (The Beatles song)
25 - Live and Let Die (Wings song)
26 - Hey Jude (The Beatles song)

Encore:
27 - Sgt. Pepper's Lonely Hearts Club Band (Reprise) (The Beatles song)
28 - Helter Skelter (The Beatles song)
29 - Golden Slumbers (The Beatles song)
30 - Carry That Weight (The Beatles song)
31 - The End (The Beatles song)

TRT = 02:15:45 

Here is the DVD9 (!) version from the 1080p original broadcast. Due to the lenght of the concert, 2 hrs.15 min, i had to choose DVD9 for the conversion, as a DVD5 is designed for maximum 1hr.30 min. I did however leave quality settings equal to original, due to the lower resolution we thus end up with a DVD9 of 4.3 GB in size. That's the trade-off for preserving quality. Here is a great recent performance by Macca and band, entertaining us for over 2 hours with an excellent selection of hits from his repertoire. Recommended.





Nessun commento:

Posta un commento