Friday, May 12, 2017

Bruce Springsteen - 2016-05-19 - Lisbon, PT (ts pro-shot) 17.10 GB

(ts pro-shot)

Bruce Springsteen & The E Street Band - Rock In Rio Lisboa 2016 Lisbon, Portugal May 19Th 2016 (.Ts)

Bruce Springsteen & The E Street Band
Rock In Rio Lisboa 2016
Parque Da Bela Vista
Lisbon, Portugal
May 19Th 2016

Format : MPEG-TS
File size : 17.1 GiB
Duration : 2h 39mn
Overall bit rate mode : Variable
Overall bit rate : 15.4 Mbps
Video
ID : 512 (0x200)
Menu ID : 1 (0x1)
Format : AVC
Format/Info : Advanced Video Codec
Format profile : Main@L4
Format settings, CABAC : Yes
Format settings, ReFrames : 4 frames
Format settings, GOP : M=3, N=15
Codec ID : 27
Duration : 2h 39mn
Bit rate mode : Variable
Bit rate : 14.2 Mbps
Maximum bit rate : 14.5 Mbps
Width : 1 920 pixels
Height : 1 080 pixels
Display aspect ratio : 16:9
Frame rate : 25.000 fps
Color space : YUV
Chroma subsampling : 4:2:0
Bit depth : 8 bits
Scan type : Interlaced
Scan type, store method : Separated fields
Scan order : Top Field First
Bits/(Pixel*Frame) : 0.274
Stream size : 15.8 GiB (93%)
Color range : Limited
Color primaries : BT.709
Transfer characteristics : BT.709
Matrix coefficients : BT.709
Audio
ID : 4112 (0x1010)
Menu ID : 1 (0x1)
Format : MPEG Audio
Format version : Version 1
Format profile : Layer 2
Mode : Dual mono
Codec ID : 3
Duration : 2h 39mn
Bit rate mode : Constant
Bit rate : 384 Kbps
Channel(s) : 2 channels
Sampling rate : 48.0 KHz
Compression mode : Lossy
Delay relative to video : 11ms
Stream size : 437 MiB (2%)
Language : English
Language, more info : Clean effects

01. Badlands
02. No Surrender
03. My Love Will Not Let You Down
04. Cover Me
05. Darkness On The Edge Of Town
06. Hungry Heart
07. The Promised Land
08. Out In The Street
09. Downbound Train
10. I'M On Fire
11. Atlantic City
12. Darlington County
13. Working On The Highway
14. Johnny 99
15. The River
16. Because The Night
17. Spirit In The Night
18. Lonesome Day
19. The Rising
20. Thunder Road
21. Born In The U.S.A.
22. Born To Run
23. Glory Days
24. Dancing In The Dark
25. Tenth Avenue Freeze-Out
26. Twist And Shout
27. This Hard Land

No comments:

Post a Comment