martedì 17 novembre 2015

U2 - 2015-11-11 - Paris - Proshot - FullHD 1080p (ts pro-shot) mirrors completed.

(ts pro-shot)

General
ID: 112 (0x70)
Complete name: U2.Innocence.Experience.Tour.2015.11.11.Paris.1080p.HDTV.h264-DRACULA.ts
Format: MPEG-TS
File size: 24.7 GiB
Duration: 2h 6mn
Overall bit rate mode: Variable
Overall bit rate: 27.9 Mbps

Video
ID: 512 (0x200)
Menu ID: 1 (0x1)
Format: AVC
Format/Info: Advanced Video Codec
Format profile: Main@L4.1
Format settings, CABAC: Yes
Format settings, ReFrames: 3 frames
Codec ID: 27
Duration: 2h 6mn
Bit rate mode: Constant
Bit rate: 24.5 Mbps
Width: 1 920 pixels
Height: 1 080 pixels
Display aspect ratio: 16:9
Frame rate: 29.970 fps
Color space: YUV
Chroma subsampling: 4:2:0
Bit depth: 8 bits
Scan type: MBAFF
Scan order: Top Field First
Bits/(Pixel*Frame): 0.394
Stream size: 21.1 GiB (85%)
Color range: Limited
Color primaries: BT.709
Transfer characteristics: BT.709
Matrix coefficients: BT.709

Audio #1
ID: 4108 (0x100C)
Menu ID: 1 (0x1)
Format: MPEG Audio
Format version: Version 1
Format profile: Layer 2
Codec ID: 4
Duration: 2h 6mn
Bit rate mode: Constant
Bit rate: 384 Kbps
Channel(s): 2 channels
Sampling rate: 48.0 KHz
Compression mode: Lossy
Delay relative to video: -438ms
Stream size: 349 MiB (1%)
Language: French

Audio #2
ID: 4124 (0x101C)-1
Menu ID: 1 (0x1)
Format: Dolby E
Mode: 20
Format settings, Endianness: Little
Muxing mode: SMPTE ST 302 / SMPTE ST 337
Codec ID: 6
Duration: 2h 6mn
Bit rate mode: Constant
Encoded bit rate: 2 304 Kbps
Channel(s): 6 channels
Channel positions: Front: L C R, Side: L R, LFE
Sampling rate: 48.0 KHz
Bit depth: 20 bits
Delay relative to video: -433ms
Language: English

Audio #3
ID: 4124 (0x101C)-2
Menu ID: 1 (0x1)
Format: Dolby E
Mode: 20
Format settings, Endianness: Little
Muxing mode: SMPTE ST 302 / SMPTE ST 337
Duration: 2h 6mn
Bit rate mode: Constant
Encoded bit rate: 0 bps
Channel(s): 2 channels
Channel positions: Front: L R
Sampling rate: 48.0 KHz
Bit depth: 20 bits
Delay relative to video: -433ms

6 commenti:

  1. What does one do with a 27.4gb file. I'm trying to figure out how to watch that ?, stream it to apple tv ?

    RispondiElimina
  2. JDownloader is asking for a password to unpack..

    RispondiElimina
  3. 1920P full hd? are you sure?? i have seen the file it´s 720p on 24g.

    RispondiElimina
  4. 1920P full hd? are you sure?? i have seen the file it´s 720p on 24g.

    RispondiElimina