Friday, June 9, 2017

The Cure - 2013-10-12 - Austin, TX (MKV pro-shot)

(MKV pro-shot)

Lineage: 
youTube webstream (1080p) -> downloaded .ts segments (mplayer + batch script) -> TSSplitter (join)

Mediainfo:

General
ID : 1 (0x1)
Complete name : The Cure 2013-10-12 Austin City Limits.ts
Format : MPEG-TS
File size : 4.16 GiB
Duration : 2h 7mn
Overall bit rate : 4 691 Kbps

Video
ID : 256 (0x100)
Menu ID : 1 (0x1)
Format : AVC
Format/Info : Advanced Video Codec
Format profile : High@L4.0
Format settings, CABAC : Yes
Format settings, ReFrames : 1 frame
Codec ID : 27
Duration : 2h 7mn
Bit rate : 4 205 Kbps
Width : 1 920 pixels
Height : 1 080 pixels
Display aspect ratio : 16:9
Frame rate mode : Variable
Color space : YUV
Chroma subsampling : 4:2:0
Bit depth : 8 bits
Scan type : Progressive
Stream size : 3.73 GiB (90%)

Audio
ID : 257 (0x101)
Menu ID : 1 (0x1)
Format : AAC
Format/Info : Advanced Audio Codec
Format version : Version 4
Format profile : LC
Muxing mode : ADTS
Codec ID : 15
Duration : 2h 7mn
Bit rate mode : Constant / Variable / Variable
Bit rate : 251 Kbps
Minimum bit rate : 242 Kbps / 242 Kbps
Maximum bit rate : 283 Kbps / 283 Kbps
Channel(s) : 2 channels
Channel positions : Front: L R
Sampling rate : 48.0 KHz
Compression mode : Lossy
Delay relative to video : -26ms
Stream size : 229 MiB (5%)

01 - Open
02 - A Night Like This
03 - The End of the World
04 - Lovesong
05 - Just Like Heaven
06 - From the Edge of the Deep Green Sea
07 - Fascination Street
08 - Pictures of You
09 - Lullaby
10 - High
11 - The Lovecats
12 - Close to Me
13 - Hot Hot Hot!!!
14 - The Caterpillar
15 - The Walk
16 - Stop Dead
17 - Push
18 - In Between Days
19 - Friday I'm in Love
20 - Doing the Unstuck
21 - Want
22 - The Hungry Ghost
23 - Wrong Number
24 - One Hundred Years
25 - Give Me It
26 - End
27 - Boys Don't Cry

2 comments:

  1. great band...great set...great concert...regards from a thankful Tuber

    ReplyDelete
  2. Totally recommended, I have it since it first appeared here possibly. Like Rush Honolulu 1984 that has been more times and is that good music should never be missing. Good job.

    ReplyDelete